<?xml version="1.0" standalone="no"?>
<!DOCTYPE svg PUBLIC "-//W3C//DTD SVG 1.1//EN" "http://www.w3.org/Graphics/SVG/1.1/DTD/svg11.dtd" >
<svg>
<metadata>
Created by FontForge 20090914 at Tue May 29 07:20:13 2012
 By www-data
Digitized data copyright Monotype Typography, Ltd 1991-1995. All rights reserved. Monotype Script&#226;&#132;&#162; is a trademark of Monotype Typography, Ltd which may be registered in certain jurisdictions.
</metadata>
<defs>
<font id="ScriptMTBold" horiz-adv-x="1067" >
  <font-face 
    font-family="Script MT Bold"
    font-weight="700"
    font-stretch="normal"
    units-per-em="2048"
    panose-1="3 4 6 2 4 6 7 8 9 4"
    ascent="1638"
    descent="-410"
    x-height="848.001"
    cap-height="1425"
    bbox="-395 -515.998 2202.4 1950"
    underline-thickness="102"
    underline-position="-103"
    unicode-range="U+0020-U+F003"
  />
<missing-glyph horiz-adv-x="2048" 
d="M256 0v1536h1536v-1536h-1536zM384 128h1280v1280h-1280v-1280z" />
    <glyph glyph-name=".notdef" horiz-adv-x="2048" 
d="M256 0v1536h1536v-1536h-1536zM384 128h1280v1280h-1280v-1280z" />
    <glyph glyph-name="space" unicode=" " horiz-adv-x="512" 
 />
    <glyph glyph-name="exclam" unicode="!" horiz-adv-x="662" 
d="M311 385c-39.333 62.667 -59 129.667 -59 201c0 58.667 18.167 134.334 54.5 227.001s59.833 161 70.5 205s16 91.667 16 143c0 41.333 -3 76.666 -9 105.999s-9 46 -9 50c0 12 34.167 32.333 102.5 61s107.833 43 118.5 43c12.667 0 24.667 -19.667 36 -59
s17 -83.666 17 -132.999c0 -67.333 -12 -135.5 -36 -204.5s-64.833 -147.833 -122.5 -236.5s-96.167 -154.334 -115.5 -197.001s-29 -82.667 -29 -120c0 -2.66699 1.33301 -13 4 -31s4 -28.667 4 -32c0 -6 -14.333 -13.667 -43 -23zM408 213
c4 0 6.00098 -3.33301 6.00098 -10s-10.333 -35.5 -31 -86.5s-42.334 -87 -65.001 -108s-54.334 -31.5 -95.001 -31.5c-38.667 0 -77.667 9.5 -117 28.5s-59 32.167 -59 39.5c0 2 3.33301 9 10 21c34.667 46.667 61.334 108 80.001 184c2 16 5.33301 24 10 24
c8 0 17 -6 27 -18c44.667 -42 91.667 -63 141 -63c21.333 0 41.5 3.33301 60.5 10s29.833 10 32.5 10z" />
    <glyph glyph-name="quotedbl" unicode="&#x22;" horiz-adv-x="901" 
d="M805 1417c2 -97.333 -7.16699 -179 -27.5 -245s-65.833 -151.667 -136.5 -257l-63 -10c40 110.667 60 206.667 60 288c0 52 -7.33301 107 -22 165zM467 1397c2 -98 -7.16699 -179.833 -27.5 -245.5s-65.833 -151.167 -136.5 -256.5l-63 -10c40 110.667 60 206.667 60 288
c0 52 -7 106.667 -21 164z" />
    <glyph glyph-name="numbersign" unicode="#" horiz-adv-x="1368" 
d="M1282 395h-317l-84 -395h-146l86 395h-403l-82 -395h-143l81 395h-188v144h219l72 350h-291v143h320l86 398h143l-86 -398h401l84 398h144l-86 -398h190v-143h-217l-74 -350h291v-144zM922 889h-402l-71 -348h401z" />
    <glyph glyph-name="dollar" unicode="$" 
d="M780 1376c76.667 -16.667 136.5 -38.5049 179.5 -65.5049s64.5 -54.167 64.5 -81.5c0 -33.333 -32.667 -101.666 -98 -204.999c-24.667 0 -40.167 4.33301 -46.5 13s-9.5 19.334 -9.5 32.001c0 4.66699 1.83301 21.834 5.5 51.501s5.5 47.5 5.5 53.5
c0 80 -39 127.667 -117 143l-125 -463c79.333 -84 138 -157.833 176 -221.5s57 -131.167 57 -202.5c0 -102.667 -41.5 -200 -124.5 -292s-199.833 -145.667 -350.5 -161l-53 -190h-78l53 197c-84 16 -150.667 47.667 -200 95s-74 77 -74 89s14.667 49.333 44 112
s47.333 98.834 54 108.501s15 14.5 25 14.5c23.333 0 35 -13.667 35 -41l-6 -94c0 -62 11.333 -109.167 34 -141.5s59 -55.5 109 -69.5l149 547c-76.667 80 -132.667 150.833 -168 212.5s-53 126.167 -53 193.5c0 98.667 38.5 185.334 115.5 260.001s183.167 112 318.5 112
l13 50h80zM688 1325c-64 -2 -113.167 -22.833 -147.5 -62.5s-51.5 -80.834 -51.5 -123.501c0 -67.333 30.333 -135.666 91 -204.999zM420 52.9951c70 7.33301 126.667 34.5 170 81.5s65 101.167 65 162.5c0 68 -35.333 143 -106 225z" />
    <glyph glyph-name="percent" unicode="%" horiz-adv-x="1559" 
d="M594 1223c39.333 -7.33301 78.333 -11 117 -11c56.667 0 118 8.66699 184 26s144.333 45.333 235 84c163.333 70 255.666 105 276.999 105c22 0 33 -12 33 -36c0 -8.66699 -2 -16.334 -6 -23.001l-1174 -1868h-170l1108 1768c-205.333 -86 -367.666 -129 -486.999 -129
c-42 0 -85 3.33301 -129 10c-22.667 -122 -61.5 -212.667 -116.5 -272s-118.833 -89 -191.5 -89c-59.333 0 -108.5 21.333 -147.5 64s-58.5 96.667 -58.5 162c0 54 16 117.5 48 190.5s73.333 129.167 124 168.5s90 59 118 59c18 0 27 -9.66699 27 -29
c0 -11.333 -12.333 -36 -37 -74c-74.667 -113.333 -112 -221 -112 -323c0 -41.333 7.5 -74.666 22.5 -99.999s34.5 -38 58.5 -38c29.333 0 65.5 24.833 108.5 74.5s72.5 126.834 88.5 231.501c-46.667 31.333 -70 72.666 -70 123.999c0 35.333 7.5 66.5 22.5 93.5
s31.5 40.5 49.5 40.5c52 0 78 -69.667 78 -209zM1513 -76c2 -30.667 0.331055 -49.1699 -5.00195 -55.5029s-17 -9.5 -35 -9.5c-21.333 -116 -60.666 -205.167 -117.999 -267.5s-119.333 -93.5 -186 -93.5c-58.667 0 -107.334 21 -146.001 63s-58 94.667 -58 158
c0 70.667 17.667 142.667 53 216s77.333 126.333 126 159s84.334 49 107.001 49c19.333 0 29 -8 29 -24c0 -8.66699 -10.333 -30 -31 -64c-79.333 -123.333 -119 -240.666 -119 -351.999c0 -38.667 6.83301 -69.167 20.5 -91.5s32.167 -33.5 55.5 -33.5
c30.667 0 67.334 25 110.001 75s73.667 127.333 93 232c-24.667 14.667 -42.167 30.334 -52.5 47.001s-15.5 41.334 -15.5 74.001c0 40 6.66699 72.833 20 98.5s30 38.5 50 38.5c49.333 0 74 -69.667 74 -209z" />
    <glyph glyph-name="ampersand" unicode="&#x26;" horiz-adv-x="1386" 
d="M598 807l0.00195312 84.001c0 148.667 39 272.167 117 370.5s175 147.5 291 147.5c64 0 119.167 -14.333 165.5 -43s69.5 -62 69.5 -100c0 -22 -21.667 -49.333 -65 -82s-70 -49 -80 -49c-20.667 0 -33.167 19.5 -37.5 58.5s-14.833 70.667 -31.5 95
s-39.667 36.5 -69 36.5c-36 0 -64.333 -23.333 -85 -70s-31 -111.334 -31 -194.001c0 -132 21.333 -282 64 -450s85 -287.667 127 -359s88 -107 138 -107c47.333 0 89.666 23.333 126.999 70c14 14 23.667 21 29 21c8.66699 0 18 -5.33301 28 -16s15 -19 15 -25
c0 -20 -33.667 -61.333 -101 -124s-140.666 -94 -219.999 -94c-60 0 -113.5 18 -160.5 54s-92.5 92 -136.5 168c-82.667 -76 -155.834 -132 -219.501 -168s-131.834 -54 -204.501 -54c-79.333 0 -144.333 25.167 -195 75.5s-76 114.833 -76 193.5
c0 205.333 180.333 392.333 541 561zM719.002 272.001c-52.667 122.667 -92.333 274.332 -119 454.999c-97.333 -45.333 -168.833 -93.666 -214.5 -144.999s-68.5 -115 -68.5 -191c0 -68.667 18.167 -128.167 54.5 -178.5s78.5 -75.5 126.5 -75.5c28 0 57.5 9 88.5 27
s75.167 54 132.5 108z" />
    <glyph glyph-name="quotesingle" unicode="'" horiz-adv-x="492" 
d="M467 1417c2 -97.333 -7.16699 -179 -27.5 -245s-65.833 -151.667 -136.5 -257l-63 -10c40 110.667 60 206.667 60 288c0 52 -7 107 -21 165z" />
    <glyph glyph-name="parenleft" unicode="(" horiz-adv-x="981" 
d="M950 1448c-229.333 -212.667 -387.667 -439.168 -475 -679.501s-131 -465.166 -131 -674.499c0 -110 12.5 -209.167 37.5 -297.5s65.167 -179.5 120.5 -273.5h-103c-107.333 141.333 -182.5 271 -225.5 389s-64.5 239.333 -64.5 364c0 224.667 58.5 437.667 175.5 639
s302.167 379 555.5 533h110z" />
    <glyph glyph-name="parenright" unicode=")" horiz-adv-x="981" 
d="M604 1448c100.667 -128.667 174.669 -252.668 222.002 -372.001s71 -247.333 71 -384c0 -215.333 -57 -424.5 -171 -627.5s-301.333 -383.5 -562 -541.5h-113c114 110 200.167 202.833 258.5 278.5s115.666 173.5 171.999 293.5s99.666 246.833 129.999 380.5
s45.5 265.834 45.5 396.501c0 120 -12 222.5 -36 307.5s-63 174.5 -117 268.5h100z" />
    <glyph glyph-name="asterisk" unicode="*" horiz-adv-x="981" 
d="M965 739c-126 9.33301 -258.665 74.332 -397.998 194.999c2.66699 -95.333 26.667 -217 72 -365l-203 -73c-6.66699 39.333 -10 76.666 -10 111.999c0 52 5.16699 97.667 15.5 137s29.166 100.333 56.499 183c-88.667 -27.333 -194.667 -86.666 -318 -177.999l-139 165
c94 54.667 204 82 330 82c25.333 0 61.333 -2 108 -6c-94.667 112.667 -186.667 196.667 -276 252l119 182c93.333 -71.333 162.666 -203 207.999 -395c76 124.667 126.667 238 152 340l209 -55c-44 -117.333 -145 -222 -303 -314c124.667 -37.333 246 -53.666 364 -48.999z
" />
    <glyph glyph-name="plus" unicode="+" horiz-adv-x="1366" 
d="M1229 469h-469v-469h-158v469h-469v158h469v469h158v-469h469v-158z" />
    <glyph glyph-name="comma" unicode="," horiz-adv-x="492" 
d="M297 291c56 -34 97.001 -69.165 123.001 -105.498s39 -79.833 39 -130.5c0 -82 -33.333 -157.333 -100 -226s-164.334 -126.334 -293.001 -173.001l-21 61c74 40 130 76.833 168 110.5s57 73.5 57 119.5c0 58 -33.333 100.333 -100 127c-23.333 8 -35 16 -35 24
c0 6.66699 14 22.667 42 48s68 73.666 120 144.999z" />
    <glyph glyph-name="hyphen" unicode="-" horiz-adv-x="670" 
d="M626 537l-46.998 -108.999c-23.333 -54.667 -42.333 -87.834 -57 -99.501s-43.334 -17.5 -86.001 -17.5l-221 8c-30.667 0 -57.334 -8.66699 -80.001 -26c-10 -6.66699 -18.333 -10 -25 -10c-20 0 -26.667 7.33301 -20 22l55 129c14 33.333 28.667 55 44 65
s49.333 15.333 102 16h165c60 0 98 6.66699 114 20s27.333 20 34 20c20 0 27.333 -6 22 -18z" />
    <glyph glyph-name="period" unicode="." horiz-adv-x="406" 
d="M395 209c-29.333 -95.333 -56.166 -157.833 -80.499 -187.5s-60.833 -44.5 -109.5 -44.5c-60 0 -118 21.333 -174 64c35.333 54.667 68.666 133 99.999 235c42.667 -36 74 -58.833 94 -68.5s44 -14.5 72 -14.5c24 0 56.667 5.33301 98 16z" />
    <glyph glyph-name="slash" unicode="/" horiz-adv-x="811" 
d="M756 1430l-447 -1883h-231l448 1883h230z" />
    <glyph glyph-name="zero" unicode="0" 
d="M1012 1024c4.66699 -4 14.6689 -8.99707 30.002 -14.9971s23 -16 23 -30c0 -20 -3.5 -33.5 -10.5 -40.5s-17.667 -9.5 -32 -7.5s-22.833 3 -25.5 3c-132 -638 -343.667 -957 -635 -957c-89.333 0 -161 36.333 -215 109s-81 169.667 -81 291
c0 180.667 44 359.167 132 535.5s187.667 305.166 299 386.499s188.666 122 231.999 122c10.667 0 16 -11.667 16 -35c0 -17.333 -8.66699 -34.333 -26 -51c-104 -102 -190.167 -250.833 -258.5 -446.5s-102.5 -369.5 -102.5 -521.5
c0 -74.667 12.167 -133.334 36.5 -176.001s57.5 -64 99.5 -64c75.333 0 150.5 66.167 225.5 198.5s143.833 340.5 206.5 624.5c-100 29.333 -150 92.333 -150 189c0 56.667 15.667 118.167 47 184.5s67.666 99.5 108.999 99.5c60 0 90 -72.333 90 -217
c0 -62.667 -3.33301 -123.334 -10 -182.001z" />
    <glyph glyph-name="one" unicode="1" horiz-adv-x="811" 
d="M436 1225c-106 -88.667 -180.999 -171.999 -224.999 -249.999c-16.667 -27.333 -28.334 -41 -35.001 -41c-13.333 0 -25.5 3.83301 -36.5 11.5s-16.5 16.167 -16.5 25.5c0 11.333 17.333 42.166 52 92.499s92.834 113.5 174.501 189.5s142.167 123.333 181.5 142
s90.333 28 153 28c32.667 0 49 -8.33301 49 -25c0 -1.33301 -0.666992 -11.333 -2 -30v-2l-85 -337l-109 -418c-42 -159.333 -80.167 -295.5 -114.5 -408.5s-58 -175.5 -71 -187.5s-41.833 -21.667 -86.5 -29s-95.334 -11 -152.001 -11c-34.667 0 -52 8.33301 -52 25
c0 15.333 5.66699 36.333 17 63c108 292.667 227.333 680 358 1162z" />
    <glyph glyph-name="two" unicode="2" horiz-adv-x="1069" 
d="M195 201c75.333 23.333 148.331 35.001 218.998 35.001c13.333 0 60.833 -3.5 142.5 -10.5s130.167 -10.5 145.5 -10.5c38 0 69.167 6.83301 93.5 20.5s43.833 40.5 58.5 80.5c4.66699 13.333 9.33398 20 14.001 20c12 0 25 -3.16699 39 -9.5s21 -11.5 21 -15.5
c0 -22 -17.833 -70.5 -53.5 -145.5s-72.167 -125.167 -109.5 -150.5s-93.666 -38 -168.999 -38c-16.667 0 -75.167 4.16699 -175.5 12.5s-159.833 12.5 -178.5 12.5c-65.333 0 -113.666 -4.16699 -144.999 -12.5s-48.666 -12.5 -51.999 -12.5c-9.33301 0 -14 6.33301 -14 19
c0 40 7.5 79.333 22.5 118s48.667 89.834 101 153.501s129.833 143.167 232.5 238.5l113 104c89.333 84 152.166 164.5 188.499 241.5s54.5 155.5 54.5 235.5c0 68 -17.5 122.667 -52.5 164s-80.833 62 -137.5 62c-54 0 -101 -19.5 -141 -58.5s-60 -85.167 -60 -138.5
c0 -44.667 22 -84.334 66 -119.001c23.333 -17.333 35 -33 35 -47c0 -18.667 -25.333 -40.334 -76 -65.001s-91.667 -37 -123 -37c-25.333 0 -47.333 12.167 -66 36.5s-28 53.833 -28 88.5c0 111.333 53.5 214.166 160.5 308.499s224.833 141.5 353.5 141.5
c106 0 193.167 -32.167 261.5 -96.5s102.5 -146.166 102.5 -245.499c0 -80 -22.5 -154 -67.5 -222s-98.833 -127.5 -161.5 -178.5s-145.334 -111.333 -248.001 -181s-181.167 -125.667 -235.5 -168s-97.833 -85.833 -130.5 -130.5z" />
    <glyph glyph-name="three" unicode="3" 
d="M1049 1114c0 -166 -118.997 -284.666 -356.997 -355.999c187.333 -66.667 281 -182 281 -346c0 -126 -53 -230.333 -159 -313s-240.667 -124 -404 -124c-122 0 -215.667 25.333 -281 76s-98 122.334 -98 215.001c0 33.333 8.5 58.166 25.5 74.499s51.167 33 102.5 50
s84.333 25.5 99 25.5c9.33301 0 17.166 -4.5 23.499 -13.5s9.5 -19.5 9.5 -31.5c0 -10 -6.83301 -30.667 -20.5 -62s-20.5 -62.666 -20.5 -93.999c0 -45.333 17.5 -84 52.5 -116s77.5 -48 127.5 -48c79.333 0 142.166 38.5 188.499 115.5s69.5 164.167 69.5 261.5
c0 70 -15.667 128.167 -47 174.5s-71 68.166 -119 65.499l-71 -4c-23.333 -2 -35 11.667 -35 41c0 34 4.83301 56 14.5 66s25.167 15 46.5 15c55.333 0 99.5 4.16699 132.5 12.5s63.667 28.666 92 60.999s51 73.166 68 122.499s25.5 98 25.5 146
c0 60 -18.333 109.167 -55 147.5s-83.334 57.5 -140.001 57.5c-52 0 -97 -15.667 -135 -47s-57 -68 -57 -110c0 -16 5 -35.333 15 -58s15 -40.334 15 -53.001c0 -17.333 -23.333 -38.333 -70 -63s-80 -37 -100 -37c-15.333 0 -28.666 9.33301 -39.999 28
s-17 41.334 -17 68.001c0 84.667 44.5 166.167 133.5 244.5s200.833 117.5 335.5 117.5c109.333 0 198.166 -28.667 266.499 -86s102.5 -131.666 102.5 -222.999z" />
    <glyph glyph-name="four" unicode="4" 
d="M786 565c78.667 3.33301 143.667 10.999 195 22.999l16 4c20.667 0 31 -7 31 -21c0 -10 -7.33301 -38.833 -22 -86.5s-26.167 -74.167 -34.5 -79.5s-29.5 -9.66602 -63.5 -12.999s-90.333 -5 -169 -5l-53 -192c-14.667 -54.667 -28 -97 -40 -127s-25.667 -49.333 -41 -58
s-45.5 -16.334 -90.5 -23.001s-93.5 -10 -145.5 -10c-31.333 0 -47 8.33301 -47 25c0 14 4.66699 33.667 14 59l121 328l-353 12c-32 1.33301 -51.833 3.33301 -59.5 6s-11.5 9.66699 -11.5 21c0 42.667 7 78.334 21 107.001c32 67.333 80 147.333 144 240
c93.333 134 202.166 263.667 326.499 389s214.5 203 270.5 233c34.667 18.667 82.334 28 143.001 28c38 0 57 -10 57 -30c0 -8.66699 -15.667 -79 -47 -211l-30 -129c-16.667 -70 -51.667 -201 -105 -393zM711 1231c-64.667 -44.667 -154.831 -134.833 -270.498 -270.5
s-214.834 -275.5 -297.501 -419.5c155.333 -2 275.666 -0.666992 360.999 4c56.667 166 125.667 394.667 207 686z" />
    <glyph glyph-name="five" unicode="5" 
d="M1026 1423c-19.333 -81.333 -43.834 -141.667 -73.501 -181s-63.667 -64.666 -102 -75.999s-89.166 -17 -152.499 -17c-64.667 0 -141 5.33301 -229 16l-84 -309c59.333 15.333 114.666 23 165.999 23c119.333 0 218.833 -38.667 298.5 -116s119.5 -174 119.5 -290
c0 -140 -52.667 -257.667 -158 -353s-235.666 -143 -390.999 -143c-119.333 0 -213.666 28.667 -282.999 86s-104 119.666 -104 186.999c0 21.333 3 38.5 9 51.5s18.167 24.333 36.5 34s47.5 23.334 87.5 41.001s67.333 26.5 82 26.5c16 0 24 -8 24 -24
c0 -6.66699 -3.66699 -30 -11 -70s-11 -63.667 -11 -71c0 -53.333 16.167 -97.5 48.5 -132.5s73.5 -52.5 123.5 -52.5c71.333 0 132.5 41.167 183.5 123.5s76.5 183.166 76.5 302.499c0 84 -22.833 149.833 -68.5 197.5s-108.834 71.5 -189.501 71.5
c-36.667 0 -65 -2.5 -85 -7.5s-33.333 -7.5 -40 -7.5c-12 0 -18 6.33301 -18 19c0 4.66699 4 21.667 12 51l156 561c10.667 39.333 27 59 49 59c4.66699 0 16 -2 34 -6c64 -14.667 134.333 -22 211 -22c88.667 0 183 9.33301 283 28z" />
    <glyph glyph-name="six" unicode="6" 
d="M737 850c70 0 131.503 -32.167 184.503 -96.5s79.5 -140.166 79.5 -227.499c0 -142 -56.667 -269 -170 -381s-242.333 -168 -387 -168c-110.667 0 -200.334 42.333 -269.001 127s-103 196 -103 334c0 176 44.167 339.333 132.5 490s197.5 270.834 327.5 360.501
s226.333 134.5 289 134.5c1.33301 0 10.166 -4.83301 26.499 -14.5s24.5 -17.834 24.5 -24.501c0 -6 -8 -14 -24 -24c-110 -61.333 -205.167 -158.833 -285.5 -292.5s-140.5 -282.5 -180.5 -446.5s-60 -287 -60 -369c0 -60 13.167 -108.5 39.5 -145.5
s60.166 -55.5 101.499 -55.5c73.333 0 134.333 58.167 183 174.5s73 224.166 73 323.499c0 44.667 -11.667 83.5 -35 116.5s-49.333 49.5 -78 49.5c-17.333 0 -34.5 -3.16699 -51.5 -9.5s-27.167 -9.5 -30.5 -9.5c-4.66699 0 -9.5 3 -14.5 9s-7.5 12.667 -7.5 20
s27.5 30 82.5 68s105.833 57 152.5 57z" />
    <glyph glyph-name="seven" unicode="7" horiz-adv-x="1081" 
d="M225 1024c-17.333 -8 -33.668 -12.0029 -49.001 -12.0029c-14.667 0 -22 8 -22 24c0 8.66699 4.66699 28.667 14 60l57 186c9.33301 28 19.5 51.833 30.5 71.5s23.5 33.167 37.5 40.5s41.833 14 83.5 20s82.834 9 123.501 9c45.333 0 104.833 -6.16699 178.5 -18.5
s130.834 -18.5 171.501 -18.5c57.333 0 99.333 6.16699 126 18.5s42 18.5 46 18.5c4.66699 0 9.5 -2.66699 14.5 -8s7.5 -10.666 7.5 -15.999c0 -34 -48.333 -144.667 -145 -332c-85.333 -166 -162.5 -335.167 -231.5 -507.5s-115.5 -301.333 -139.5 -387
s-42.333 -135.667 -55 -150s-43.834 -25.833 -93.501 -34.5s-102.5 -13 -158.5 -13c-31.333 0 -47 11 -47 33c0 32.667 25.5 111.834 76.5 237.501s175.167 310.834 372.5 555.501c116 146 195.667 264.667 239 356c-38 -5.33301 -71.333 -8 -100 -8
c-16.667 0 -74.167 4.83301 -172.5 14.5s-156.833 14.5 -175.5 14.5c-57.333 0 -99.333 -12 -126 -36s-47.667 -63.333 -63 -118z" />
    <glyph glyph-name="eight" unicode="8" horiz-adv-x="1071" 
d="M967 1124l61.0029 0.00683594c8 0 12 -4.66699 12 -14s-4 -27 -12 -53c-10.667 -5.33301 -25.667 -8 -45 -8c-24.667 0 -43 2 -55 6c-44.667 -82 -125.334 -163.333 -242.001 -244c124 -132.667 186 -256.334 186 -371.001c0 -120.667 -48.833 -228.334 -146.5 -323.001
s-209.834 -142 -336.501 -142c-100.667 0 -183.5 27.833 -248.5 83.5s-97.5 126.167 -97.5 211.5c0 77.333 26.167 151.166 78.5 221.499s141.5 144.833 267.5 223.5c-88.667 100.667 -133 203 -133 307c0 100 34.167 187 102.5 261s162.5 121.333 282.5 142
c28.667 -20.667 43 -32 43 -34c0 -8 -11 -16.333 -33 -25c-52 -24.667 -92.667 -57.334 -122 -98.001s-44 -84.334 -44 -131.001c0 -44.667 11.833 -86.334 35.5 -125.001s60.5 -86 110.5 -142c105.333 61.333 181.666 135.333 228.999 222c-50.667 35.333 -76 85 -76 149
c0 49.333 13.5 92 40.5 128s58.833 54 95.5 54c26.667 0 48 -11 64 -33s24 -52 24 -90c0 -58.667 -13.667 -117.334 -41 -176.001zM643.003 291.007c0 59.333 -16.168 117.834 -48.501 175.501s-83.166 121.167 -152.499 190.5c-214 -123.333 -321 -251 -321 -383
c0 -63.333 24.833 -116.333 74.5 -159s112.167 -64 187.5 -64s137.5 22.667 186.5 68s73.5 102.666 73.5 171.999z" />
    <glyph glyph-name="nine" unicode="9" 
d="M616 1423c111.333 0 201.332 -42.166 269.999 -126.499s103 -195.5 103 -333.5c0 -176.667 -44.167 -340.167 -132.5 -490.5s-197.5 -270.5 -327.5 -360.5s-226.333 -135 -289 -135c-1.33301 0 -10.333 5 -27 15s-25 18 -25 24c0 6.66699 8.33301 15 25 25
c110 61.333 205.167 158.833 285.5 292.5s140.5 282.5 180.5 446.5s60 287 60 369c0 59.333 -13.167 107.666 -39.5 144.999s-60.166 56 -101.499 56c-73.333 0 -134.333 -58.333 -183 -175s-73 -224.334 -73 -323.001c0 -44.667 11.667 -83.5 35 -116.5
s49.333 -49.5 78 -49.5c17.333 0 34.5 3.16699 51.5 9.5s27.167 9.5 30.5 9.5c4.66699 0 9.5 -3.16699 14.5 -9.5s7.5 -12.833 7.5 -19.5c0 -7.33301 -27.5 -30 -82.5 -68s-105.833 -57 -152.5 -57c-70 0 -131.667 32.167 -185 96.5s-80 139.833 -80 226.5
c0 142.667 56.833 269.834 170.5 381.501s242.5 167.5 386.5 167.5z" />
    <glyph glyph-name="colon" unicode=":" horiz-adv-x="575" 
d="M561 788c-21.333 -81.333 -45.499 -140.833 -72.499 -178.5s-68.167 -56.5 -123.5 -56.5c-50.667 0 -109.667 21 -177 63c32.667 34.667 67 114 103 238c43.333 -36 75.5 -59.667 96.5 -71s45.5 -17 73.5 -17c20.667 0 41.667 3.66699 63 11s33.666 11 36.999 11z
M403.001 213c-21.333 -81.333 -45.167 -141 -71.5 -179s-66.5 -57 -120.5 -57c-48.667 0 -106.667 21.333 -174 64c38 56.667 71.333 135 100 235c44 -35.333 76.667 -58 98 -68s44 -15 68 -15c10.667 0 44 6.66699 100 20z" />
    <glyph glyph-name="semicolon" unicode=";" horiz-adv-x="662" 
d="M651 788c-20 -81.333 -44.6631 -141.168 -73.9961 -179.501s-69.333 -57.5 -120 -57.5c-28.667 0 -53.5 4.33301 -74.5 13s-54.833 27.667 -101.5 57c43.333 53.333 78.666 130.333 105.999 231c29.333 -29.333 55.666 -50.666 78.999 -63.999s51.666 -20 84.999 -20
c17.333 0 50.666 6.66699 99.999 20zM285.004 292.998c106 -64.667 159.001 -143.333 159.001 -236c0 -82 -33.333 -157.667 -100 -227s-164.334 -127.333 -293.001 -174l-20 63c74 40 130 76.833 168 110.5s57 73.5 57 119.5c0 56 -33.333 98.333 -100 127
c-22 8 -33 15.333 -33 22c0 9.33301 13 25.833 39 49.5s67 72.167 123 145.5z" />
    <glyph glyph-name="less" unicode="&#x3c;" horiz-adv-x="1366" 
d="M1231 16l-1096 459v143l1096 459v-170l-883 -360l883 -361v-170z" />
    <glyph glyph-name="equal" unicode="=" horiz-adv-x="1366" 
d="M1231 705h-1096v157h1096v-157zM1231 231h-1096v158h1096v-158z" />
    <glyph glyph-name="greater" unicode="&#x3e;" horiz-adv-x="1366" 
d="M1229 477l-1094 -459v170l883 359l-883 360v172l1094 -461v-141z" />
    <glyph glyph-name="question" unicode="?" horiz-adv-x="897" 
d="M301 383c-31.333 53.333 -47.001 99.668 -47.001 139.001c0 34 9 64.333 27 91s63.833 68.5 137.5 125.5s124.667 114.167 153 171.5s42.5 115.666 42.5 174.999c0 66.667 -16.667 120 -50 160s-78 60 -134 60c-52 0 -95.667 -17.167 -131 -51.5s-53 -76.833 -53 -127.5
c0 -25.333 5.83301 -49.833 17.5 -73.5s30.667 -35.334 57 -35.001s39.5 -7.16699 39.5 -22.5c0 -17.333 -24 -41 -72 -71s-80.667 -45 -98 -45c-22 0 -42.833 17.167 -62.5 51.5s-29.5 71.5 -29.5 111.5c0 96.667 47 184.334 141 263.001s199.333 118 316 118
c92.667 0 168.667 -30 228 -90s89 -137 89 -231s-30.333 -180 -91 -258s-160 -160 -298 -246c-61.333 -38.667 -101.166 -68.5 -119.499 -89.5s-27.5 -46.5 -27.5 -76.5c0 -4 1.33301 -15.667 4 -35zM431.999 215.002c-20 -82 -43.999 -142.167 -71.999 -180.5
s-71 -57.5 -129 -57.5c-51.333 0 -108 22.667 -170 68c31.333 37.333 67.666 115.333 108.999 234c27.333 -29.333 52.833 -50.333 76.5 -63s54.167 -19 91.5 -19c16.667 0 48 6 94 18z" />
    <glyph glyph-name="at" unicode="@" horiz-adv-x="1704" 
d="M1704 160c-77.333 -190.667 -189.499 -335.999 -336.499 -435.999s-318.833 -150 -515.5 -150c-246.667 0 -450.334 79.833 -611.001 239.5s-241 361.834 -241 606.501c0 264 88.167 482.833 264.5 656.5s398.833 260.5 667.5 260.5c206.667 0 373.667 -60 501 -180
s191 -277 191 -471c0 -193.333 -55.833 -356 -167.5 -488s-248.167 -198 -409.5 -198c-60.667 0 -108.334 15.333 -143.001 46s-52 72.667 -52 126c0 34.667 7.33301 79 22 133c-66.667 -114 -125.667 -193.333 -177 -238s-103.333 -67 -156 -67
c-49.333 0 -88.666 19.5 -117.999 58.5s-44 91.833 -44 158.5c0 113.333 26.833 225.166 80.5 335.499s121.167 200.5 202.5 270.5s153 105 215 105c78 0 124.333 -50 139 -150l33 115l233 8l-176 -606c-19.333 -69.333 -29 -118.666 -29 -147.999
c0 -21.333 7.83301 -39.5 23.5 -54.5s34.5 -22.5 56.5 -22.5c49.333 0 108.333 27.167 177 81.5s125.334 127.166 170.001 218.499s67 190.666 67 297.999c0 178.667 -57.667 324.667 -173 438s-264 170 -446 170c-252.667 0 -457.834 -87.5 -615.501 -262.5
s-236.5 -383.833 -236.5 -626.5c0 -221.333 71 -403.333 213 -546s323 -214 543 -214c164.667 0 320.5 45.167 467.5 135.5s254.167 222.833 321.5 397.5h59zM684.001 176.001c46.667 0 106.167 63.168 178.5 189.501s108.5 247.5 108.5 363.5
c0 41.333 -6.66699 73.166 -20 95.499s-29.333 33.5 -48 33.5c-54 0 -113.167 -75.333 -177.5 -226s-96.5 -272 -96.5 -364c0 -26.667 5.16699 -48.667 15.5 -66s23.5 -26 39.5 -26z" />
    <glyph glyph-name="A" unicode="A" horiz-adv-x="1386" 
d="M1409 221c-153.333 -164 -293.999 -246.001 -421.999 -246.001c-70.667 0 -126.667 25 -168 75s-64.333 121.333 -69 214c-80.667 -98 -152.167 -170.667 -214.5 -218s-128.833 -71 -199.5 -71c-90.667 0 -163.5 39.167 -218.5 117.5s-82.5 182.833 -82.5 313.5
c0 156 36 316.833 108 482.5s178.667 296.5 320 392.5s312.666 144 513.999 144c150.667 0 287 -20.333 409 -61v-66c-99.333 -116 -182.5 -278.333 -249.5 -487s-100.5 -367.667 -100.5 -477c0 -53.333 10.833 -94.666 32.5 -123.999s51.834 -44 90.501 -44
c69.333 0 152.666 56.667 249.999 170v-115zM1118 1298c-61.333 33.333 -127.334 50 -198.001 50c-111.333 0 -211.666 -46.5 -300.999 -139.5s-159.833 -216.167 -211.5 -369.5s-77.5 -286.333 -77.5 -399c0 -75.333 14.5 -136.5 43.5 -183.5s66.167 -70.5 111.5 -70.5
c78.667 0 169 71.667 271 215c42 376 162.667 675 362 897z" />
    <glyph glyph-name="B" unicode="B" horiz-adv-x="1556" 
d="M1079 780c71.333 0 123.337 28.166 156.004 84.499s49 117.833 49 184.5c0 92 -30.5 165.5 -91.5 220.5s-143.167 82.5 -246.5 82.5c-138.667 0 -263.334 -40.167 -374.001 -120.5s-166 -169.166 -166 -266.499c0 -58 31.333 -100.333 94 -127c16 -6.66699 24 -13 24 -19
v-31c0 -14.667 -26.5 -33 -79.5 -55s-87.833 -33 -104.5 -33c-26 0 -52.333 21.167 -79 63.5s-40 86.166 -40 131.499c0 79.333 32.5 162.333 97.5 249s156.667 156.334 275 209.001s254.166 79 407.499 79c164 0 296.833 -34.333 398.5 -103s152.5 -156.667 152.5 -264
c0 -160 -113.333 -269.333 -340 -328c178 -55.333 267 -164.333 267 -327c0 -118.667 -44.5 -220.5 -133.5 -305.5s-195.5 -127.5 -319.5 -127.5c-54.667 0 -100.334 11 -137.001 33s-55 48.667 -55 80c0 20.667 11.667 48.667 35 84s45 53 65 53
c27.333 0 43.666 -32 48.999 -96c4 -50.667 19.667 -76 47 -76c44.667 0 84.167 49.667 118.5 149s51.5 199.333 51.5 300c0 122 -43.667 189.667 -131 203zM1112 1167c-38.667 -34.667 -67.835 -74.1689 -87.502 -118.502s-37 -131.166 -52 -260.499
s-33.833 -237.833 -56.5 -325.5s-62.167 -169.334 -118.5 -245.001s-127.666 -135 -213.999 -178s-179.166 -64.5 -278.499 -64.5c-88.667 0 -156.5 18.667 -203.5 56s-70.5 90.333 -70.5 159c0 24.667 2 45.334 6 62.001c31.333 28.667 68.666 53.834 111.999 75.501
s72.333 32.5 87 32.5c24 0 36 -18.333 36 -55c0 -6 -2.66699 -26.833 -8 -62.5s-8 -57.167 -8 -64.5c0 -82 35.333 -123 106 -123c71.333 0 133.333 46.5 186 139.5s90.5 231.833 113.5 416.5s55 312.167 96 382.5s92.833 124.333 155.5 162s111.334 56.5 146.001 56.5
c17.333 0 35 -15 53 -45z" />
    <glyph glyph-name="C" unicode="C" horiz-adv-x="1153" 
d="M1176 221c-158 -164 -348.664 -246.002 -571.997 -246.002c-160 0 -291.167 50.167 -393.5 150.5s-153.5 229.166 -153.5 386.499c0 156.667 37 305.667 111 447s170.833 254.333 290.5 339s237.167 127 352.5 127c96.667 0 175.5 -29 236.5 -87s91.5 -133.333 91.5 -226
c0 -120.667 -36.833 -225.167 -110.5 -313.5s-159.834 -132.5 -258.501 -132.5c-52 0 -94.667 13.333 -128 40s-50 61 -50 103c0 36 14.333 69.333 43 100c21.333 -39.333 50.666 -59 87.999 -59c53.333 0 102.833 33.333 148.5 100s68.5 139.667 68.5 219
c0 55.333 -12.833 99.333 -38.5 132s-59.834 49 -102.501 49c-62 0 -128.167 -38.667 -198.5 -116s-129 -176.666 -176 -297.999s-70.5 -236.666 -70.5 -345.999c0 -139.333 39.5 -253.666 118.5 -342.999s179.5 -134 301.5 -134c77.333 0 147 18 209 54
s126.333 92.333 193 169v-115z" />
    <glyph glyph-name="D" unicode="D" horiz-adv-x="1556" 
d="M567 180l127.995 -54.001c41.333 -18 75.166 -30.167 101.499 -36.5s51.5 -9.5 75.5 -9.5c110.667 0 199.5 72.5 266.5 217.5s100.5 300.5 100.5 466.5c0 175.333 -42.5 316.5 -127.5 423.5s-196.167 160.5 -333.5 160.5c-110 0 -213.167 -39.5 -309.5 -118.5
s-144.5 -162.5 -144.5 -250.5c0 -66 28 -111 84 -135c24 -11.333 36 -26.333 36 -45c0 -19.333 -26.167 -40.333 -78.5 -63s-84.166 -34 -95.499 -34c-34 0 -64 19.833 -90 59.5s-39 83.5 -39 131.5c0 127.333 66.5 248.166 199.5 362.499s306.167 171.5 519.5 171.5
c204 0 366.667 -56.167 488 -168.5s182 -262.833 182 -451.5c0 -144 -37.5 -280.667 -112.5 -410s-176 -232 -303 -308s-261.5 -114 -403.5 -114c-119.333 0 -230.666 26 -333.999 78c-83.333 -52 -155.666 -78 -216.999 -78c-34.667 0 -63.834 10 -87.501 30
s-35.5 44.333 -35.5 73c0 46.667 24.333 86 73 118s109.667 48 183 48c52 0 101.667 -8.33301 149 -25c42 34.667 70.667 76.334 86 125.001s30.666 134.667 45.999 258s39.333 220.333 72 291s80.834 129.834 144.501 177.501s127.834 75.167 192.501 82.5l39 -53
c-41.333 -42 -72.166 -84.667 -92.499 -128s-38.666 -136.5 -54.999 -279.5s-47.666 -250.333 -93.999 -322s-117.5 -135.167 -213.5 -190.5z" />
    <glyph glyph-name="E" unicode="E" 
d="M1090 221c-86 -84 -172.331 -145.669 -258.998 -185.002s-184.667 -59 -294 -59c-144.667 0 -260.5 35 -347.5 105s-130.5 162 -130.5 276c0 99.333 35.667 186.5 107 261.5s180.666 127.167 327.999 156.5c-142 54 -213 145 -213 273c0 102 49 190.167 147 264.5
s216 111.5 354 111.5c99.333 0 171.333 -19.5 216 -58.5s67 -74.5 67 -106.5c0 -20 -16.667 -51 -50 -93s-57.666 -63 -72.999 -63c-18 0 -31 25.333 -39 76c-18.667 113.333 -64.334 170 -137.001 170c-56.667 0 -108 -31.667 -154 -95s-69 -135 -69 -215
c0 -128 62.667 -192 188 -192c20.667 0 34.667 -1.16699 42 -3.5s11 -8.16602 11 -17.499c0 -25.333 -5 -53.166 -15 -83.499s-22.667 -45.5 -38 -45.5c-4.66699 0 -21.334 1.83301 -50.001 5.5s-53.667 5.5 -75 5.5c-70.667 0 -131.334 -29 -182.001 -87s-76 -128 -76 -210
c0 -88.667 29.667 -162.167 89 -220.5s134.333 -87.5 225 -87.5c74.667 0 149.334 20 224.001 60s142.667 97.333 204 172v-115z" />
    <glyph glyph-name="F" unicode="F" horiz-adv-x="1237" 
d="M1239 1444c-16 -90 -41 -155.167 -75 -195.5s-98.333 -60.5 -193 -60.5l-312 8c-92 0 -166.5 -17.833 -223.5 -53.5s-85.5 -85.5 -85.5 -149.5c0 -60 36.333 -107 109 -141c24.667 -11.333 37 -21.666 37 -30.999c0 -18.667 -13.5 -41.834 -40.5 -69.501
s-58.167 -48.167 -93.5 -61.5c-90 24.667 -135 82.667 -135 174c0 64 25.333 144.167 76 240.5s118.667 175 204 236s180 91.5 284 91.5c8.66699 0 56.167 -3.5 142.5 -10.5s138.5 -10.5 156.5 -10.5c54 0 86.667 11 98 33h51zM1196 834l-17.9971 -174.997
c-10.667 -14.667 -32.667 -28.834 -66 -42.501s-92 -31.5 -176 -53.5c-16 -174.667 -74.333 -315.5 -175 -422.5s-227.334 -160.5 -380.001 -160.5c-107.333 0 -190.833 23.333 -250.5 70s-89.5 92.667 -89.5 138c0 21.333 23.167 52.666 69.5 93.999s80.5 62 102.5 62
c16.667 0 27 -6.16699 31 -18.5s6.16699 -43.333 6.5 -93s13 -91.334 38 -125.001s59.833 -50.5 104.5 -50.5c134.667 0 220.667 139.333 258 418c-61.333 -13.333 -131 -42 -209 -86l43 135c56.667 48.667 117 84.334 181 107.001c10 107.333 28.167 192.666 54.5 255.999
s69.5 125.333 129.5 186c79.333 10 133.333 15.667 162 17c-22.667 -44 -38.334 -86.667 -47.001 -128s-14.334 -117 -17.001 -227c87.333 28.667 170 61.667 248 99z" />
    <glyph glyph-name="G" unicode="G" horiz-adv-x="1300" 
d="M1323 221c-45.333 -52.667 -132.002 -111.997 -260.002 -177.997c-26.667 -177.333 -85.667 -314.5 -177 -411.5s-194 -145.5 -308 -145.5c-54.667 0 -97.5 12.667 -128.5 38s-46.5 60.333 -46.5 105c0 124 120.333 244.333 361 361c25.333 90 50 171 74 243
c-42 -60.667 -103 -114.334 -183 -161.001s-154.333 -70 -223 -70c-112 0 -205.167 48.5 -279.5 145.5s-111.5 219.833 -111.5 368.5c0 156.667 42 305.167 126 445.5s194.333 252.666 331 336.999s269 126.5 397 126.5c114.667 0 207.834 -32.667 279.501 -98
s107.5 -150 107.5 -254c0 -112 -40.333 -210.667 -121 -296s-173.334 -128 -278.001 -128c-61.333 0 -112.166 15 -152.499 45s-60.5 67 -60.5 111c0 26.667 7.83301 50.334 23.5 71.001s33.834 31 54.501 31c20 0 30 -11.667 30 -35c0 -20.667 7.66699 -36.667 23 -48
s33 -17 53 -17c53.333 0 104.5 36.5 153.5 109.5s73.5 151.167 73.5 234.5c0 58.667 -19 106.5 -57 143.5s-87 55.5 -147 55.5c-90 0 -177.167 -40 -261.5 -120s-153 -185.167 -206 -315.5s-79.5 -254.166 -79.5 -371.499c0 -108 23.333 -193.833 70 -257.5
s108.667 -95.5 186 -95.5c130.667 0 255.667 92.333 375 277l188 27c23.333 3.33301 35 -2.33398 35 -17.001c0 -6.66699 -9 -35.334 -27 -86.001s-42.667 -135.334 -74 -254.001c103.333 60 183.333 126.333 240 199v-115zM740.998 -110.997
c-173.333 -86.667 -260 -172 -260 -256c0 -44.667 21.333 -67 64 -67c84 0 149.333 107.667 196 323z" />
    <glyph glyph-name="H" unicode="H" horiz-adv-x="1812" 
d="M1835 221c-81.333 -84.667 -155.166 -146.833 -221.499 -186.5s-134.5 -59.5 -204.5 -59.5c-78.667 0 -144.834 34.667 -198.501 104s-80.5 170.666 -80.5 303.999c0 55.333 7 127.666 21 216.999c-100 -8 -161.333 -12.667 -184 -14
c-42 -220 -115.833 -376.833 -221.5 -470.5s-225.167 -140.5 -358.5 -140.5c-98.667 0 -180 22.833 -244 68.5s-96 89.834 -96 132.501c0 31.333 23.833 67.166 71.5 107.499s80.5 60.5 98.5 60.5c26 0 39 -28 39 -84c0 -138 46.333 -207 139 -207c68 0 124.5 38 169.5 114
s80.833 202 107.5 378c-80 -11.333 -159.333 -50.333 -238 -117c-5.33301 7.33301 -10 36 -14 86c70 77.333 162.667 131.333 278 162c23.333 108 52.666 196 87.999 264s125 173 269 315c-69.333 -27.333 -126 -41 -170 -41c-28.667 0 -64.5 7.66699 -107.5 23
s-77.5 23 -103.5 23c-56.667 0 -103 -20.5 -139 -61.5s-54 -82.833 -54 -125.5s22.667 -81.667 68 -117c20.667 -12.667 31 -24.667 31 -36c0 -20 -13.333 -44.833 -40 -74.5s-51.667 -44.5 -75 -44.5c-26 0 -50 18.5 -72 55.5s-33 77.833 -33 122.5
c0 98.667 48.333 197.667 145 297s192.667 149 288 149c20.667 0 60.667 -8.5 120 -25.5s99.666 -25.5 120.999 -25.5c42.667 0 84.334 18.667 125.001 56c50.667 -26.667 76 -43.334 76 -50.001c0 -9.33301 -20.167 -34.166 -60.5 -74.499s-73.5 -97.833 -99.5 -172.5
s-53.333 -214 -82 -418c76.667 3.33301 143.667 9.33301 201 18c30.667 103.333 63.667 190.333 99 261s75.833 141.834 121.5 213.501s80.667 115.5 105 131.5s76 34.333 155 55s118.833 31 119.5 31c8 0 12 -2 12 -6c0 -10 -15 -35.833 -45 -77.5
s-73.167 -116.667 -129.5 -225s-103.833 -223.833 -142.5 -346.5c72 12 145.667 44 221 96c8.66699 -4 14 -9.83301 16 -17.5s3 -26.834 3 -57.501c-57.333 -69.333 -149.666 -118.666 -276.999 -147.999c-27.333 -130 -41 -222 -41 -276
c0 -65.333 14.333 -117.166 43 -155.499s67 -57.5 115 -57.5c38.667 0 77.5 12.5 116.5 37.5s88.833 73.167 149.5 144.5v-115z" />
    <glyph glyph-name="I" unicode="I" horiz-adv-x="1237" 
d="M1061 1257c-65.333 -26.667 -124.663 -40 -177.996 -40c-32.667 0 -70 7.83301 -112 23.5s-73.667 23.5 -95 23.5c-50 0 -94 -19 -132 -57s-57 -82 -57 -132c0 -44.667 21.333 -81.334 64 -110.001c22 -16.667 33 -31 33 -43c0 -20 -13 -44.5 -39 -73.5
s-50.667 -43.5 -74 -43.5c-26.667 0 -51 18 -73 54s-33 76.667 -33 122c0 100 48 199 144 297s192.667 147 290 147c28.667 0 66 -8.16699 112 -24.5s85.667 -24.5 119 -24.5c36 0 70.333 11.667 103 35c14.667 9.33301 26 14 34 14c10 0 23.5 -5.16699 40.5 -15.5
s25.5 -21.5 25.5 -33.5c0 -6.66699 -17.667 -29.667 -53 -69c-53.333 -58 -90.333 -121.5 -111 -190.5s-41.667 -175.5 -63 -319.5s-44.833 -261.5 -70.5 -352.5s-65.334 -173.333 -119.001 -247s-116.834 -128.834 -189.501 -165.501s-152 -55 -238 -55
c-102 0 -184.167 23.5 -246.5 70.5s-93.5 91.833 -93.5 134.5c0 24.667 24 57.834 72 99.501s79.333 62.5 94 62.5c19.333 0 31.333 -7 36 -21s7 -38.333 7 -73c0 -58.667 13.167 -105.834 39.5 -141.501s60.833 -53.5 103.5 -53.5c63.333 0 117.166 33.333 161.499 100
s80.5 188.334 108.5 365.001s65.667 312.334 113 407.001s139.666 204.667 276.999 330z" />
    <glyph glyph-name="J" unicode="J" 
d="M1090 221c-62 -69.333 -183.666 -139.672 -364.999 -211.005c-62.667 -179.333 -146.5 -311.5 -251.5 -396.5s-204.167 -127.5 -297.5 -127.5c-42.667 0 -77.167 13.5 -103.5 40.5s-39.5 62.5 -39.5 106.5c0 146.667 142.667 269.667 428 369
c50.667 300.667 88 506.167 112 616.5s51.667 197.333 83 261s79.666 137.334 144.999 221.001s106.333 138.834 123 165.501c-64.667 -34.667 -119.334 -52 -164.001 -52c-26.667 0 -59 8 -97 24s-72 24 -102 24c-50 0 -94.167 -18.833 -132.5 -56.5
s-57.5 -80.5 -57.5 -128.5c0 -41.333 17 -75.166 51 -101.499s51 -44.833 51 -55.5c0 -10 -15 -31.667 -45 -65s-54 -50 -72 -50c-17.333 0 -39.333 16.5 -66 49.5s-40 74.5 -40 124.5c0 100.667 47.667 200.167 143 298.5s191.666 147.5 288.999 147.5
c32 0 66.667 -8.83301 104 -26.5s69 -26.5 95 -26.5c36 0 74.667 17.667 116 53c52 -6 78 -16 78 -30c0 -9.33301 -15.167 -38.166 -45.5 -86.499s-57.666 -110 -81.999 -185s-45.166 -173.167 -62.499 -294.5l-15 -100c-42.667 -301.333 -80 -508 -112 -620
c143.333 48.667 254 124.334 332 227.001v-115zM438.001 -88.0059c-218 -77.333 -327 -167.333 -327 -270c0 -20.667 6.5 -37.834 19.5 -51.501s29.5 -20.5 49.5 -20.5c44.667 0 91.167 26.833 139.5 80.5s87.833 140.834 118.5 261.501z" />
    <glyph glyph-name="K" unicode="K" horiz-adv-x="1729" 
d="M1049 1255c-74 -28.667 -136.333 -43.002 -187 -43.002c-36 0 -81.833 10.333 -137.5 31s-95.834 31 -120.501 31c-44 0 -81.667 -17.167 -113 -51.5s-47 -75.833 -47 -124.5c0 -56 25.333 -105.333 76 -148c16.667 -14 25 -24.667 25 -32
c0 -11.333 -15.167 -32.333 -45.5 -63s-56.166 -46 -77.499 -46c-23.333 0 -46.666 19.667 -69.999 59s-35 79.666 -35 120.999c0 108 44 208 132 300s183.333 138 286 138c39.333 0 88.166 -11.167 146.499 -33.5s100.5 -33.5 126.5 -33.5c40 0 75.333 16.333 106 49
c10.667 10.667 20.334 16 29.001 16s23.167 -3.33301 43.5 -10s30.5 -14 30.5 -22c0 -6 -18.667 -32.833 -56 -80.5s-66.333 -99.167 -87 -154.5s-40 -137.666 -58 -246.999l-21 -123c-40 -244 -87.167 -415.5 -141.5 -514.5s-122.333 -173.167 -204 -222.5
s-169.834 -74 -264.501 -74c-90 0 -169.5 21.333 -238.5 64s-103.5 90.334 -103.5 143.001c0 26 22.667 58.833 68 98.5s78 59.5 98 59.5c31.333 0 47 -25.333 47 -76c2 -142 47 -213 135 -213c136.667 0 227 156.667 271 470c19.333 134 47.833 250.833 85.5 350.5
s138.167 226.834 301.5 381.501zM1751 220.998c-80 -84.667 -150.332 -146.501 -210.999 -185.501s-124.667 -58.5 -192 -58.5c-68.667 0 -125.5 25.333 -170.5 76s-67.5 115 -67.5 193c0 11.333 4.5 55.166 13.5 131.499s13.5 121.833 13.5 136.5
c0 63.333 -13 108.333 -39 135c-8 -1.33301 -20.333 -2 -37 -2c-31.333 0 -47 13.667 -47 41c0 40 20.667 60 62 60l44 -3c42 0 77.667 19.667 107 59s57.333 113.333 84 222c65.333 266 163.666 399 294.999 399c30.667 0 59.834 -11.667 87.501 -35
s41.5 -47.666 41.5 -72.999c0 -15.333 -12.333 -47.166 -37 -95.499s-44 -72.5 -58 -72.5c-7.33301 0 -18.333 12.333 -33 37s-36.334 37 -65.001 37c-56 0 -99.667 -61 -131 -183s-63 -205 -95 -249s-66.667 -72.667 -104 -86c66.667 -34.667 115.167 -75 145.5 -121
s45.5 -107 45.5 -183c0 -14.667 -1.5 -38.667 -4.5 -72s-4.5 -58 -4.5 -74c0 -74.667 30.333 -112 91 -112c70 0 158.667 64.333 266 193v-115z" />
    <glyph glyph-name="L" unicode="L" horiz-adv-x="1300" 
d="M1323 221c-158 -160.667 -319.665 -240.996 -484.998 -240.996c-48 0 -94.167 6.16699 -138.5 18.5s-98.333 33.166 -162 62.499s-119.834 50.666 -168.501 63.999c-90 -98.667 -171.333 -148 -244 -148c-25.333 0 -46.333 8.33301 -63 25s-25 37 -25 61
c0 50.667 24.833 95.167 74.5 133.5s119.834 64.833 210.501 79.5c38 52 62.333 102.833 73 152.5s19 131.5 25 245.5c11.333 234.667 74.166 418.5 188.499 551.5s238.5 199.5 372.5 199.5c92 0 167.5 -29.167 226.5 -87.5s88.5 -132.833 88.5 -223.5
c0 -104.667 -31 -196.334 -93 -275.001s-133.333 -118 -214 -118c-42 0 -75 11.5 -99 34.5s-36 54.5 -36 94.5c0 20.667 4 44.667 12 72c18 -20.667 40.667 -31 68 -31c45.333 0 85 27 119 81s51 118.333 51 193c0 57.333 -13 102.5 -39 135.5s-61.667 49.5 -107 49.5
c-54.667 0 -97.167 -19.667 -127.5 -59s-51.5 -86.333 -63.5 -141s-24.833 -143 -38.5 -265s-36.334 -230.167 -68.001 -324.5s-90.834 -186.833 -177.501 -277.5c56.667 4 105.834 0.666992 147.501 -10s101.334 -30.834 179.001 -60.501s144.5 -44.5 200.5 -44.5
c109.333 0 213.666 56 312.999 168v-115z" />
    <glyph glyph-name="M" unicode="M" horiz-adv-x="2048" 
d="M2071 221c-149.333 -160.667 -285.333 -241.002 -408 -241.002c-74.667 0 -131.5 36 -170.5 108s-58.5 168.333 -58.5 289c0 93.333 19.167 221.666 57.5 384.999s87.833 300.666 148.5 411.999l58 104c-79.333 -82.667 -144.333 -173.167 -195 -271.5
s-111.167 -235.833 -181.5 -412.5s-123.5 -297 -159.5 -361s-70.5 -116.167 -103.5 -156.5s-62.333 -66.5 -88 -78.5s-70.5 -18 -134.5 -18c-24.667 0 -37 6.66699 -37 20c0 1.33301 4.33301 22.333 13 63s17.5 105.834 26.5 195.501s15.5 242 19.5 457
s35.333 399.167 94 552.5c-62.667 -71.333 -126.667 -237.333 -192 -498l-25 -98c-68.667 -271.333 -147.334 -454.5 -236.001 -549.5s-175.667 -142.5 -261 -142.5c-52.667 0 -99 16.667 -139 50s-60 71.666 -60 114.999c0 33.333 24.167 70.666 72.5 111.999
s78.833 62 91.5 62c14.667 0 24.334 -5 29.001 -15s10.667 -37.5 18 -82.5s18.5 -74.333 33.5 -88s33.833 -20.5 56.5 -20.5c51.333 0 108 51.5 170 154.5s118.667 262.167 170 477.5l29 121c23.333 98.667 46.333 177.334 69 236.001s52.667 117.334 90 176.001
c54 84 87.167 128.833 99.5 134.5s35.5 10.334 69.5 14.001s68 5.5 102 5.5c13.333 0 20 -7.66699 20 -23c0 -7.33301 -2 -22.333 -6 -45c-12.667 -93.333 -18.667 -187 -18 -281l2 -268c1.33301 -233.333 -17.334 -421.666 -56.001 -564.999
c35.333 42.667 86.666 152.667 153.999 330c97.333 251.333 186 440 266 566c38 60.667 83.833 118.834 137.5 174.501s90.834 85.5 111.501 89.5c70.667 13.333 130.334 20 179.001 20c18 0 27 -5 27 -15c0 -14 -11 -45.333 -33 -94c-52 -117.333 -100.5 -276 -145.5 -476
s-67.5 -359.333 -67.5 -478c0 -134 41 -201 123 -201c66.667 0 146 56.667 238 170v-115z" />
    <glyph glyph-name="N" unicode="N" horiz-adv-x="1812" 
d="M1266 276c56 142.667 110.665 350.333 163.998 623c37.333 198.667 81 336 131 412s108.667 114 176 114c54.667 0 82 -31.333 82 -94c0 -36 -6.83301 -61.5 -20.5 -76.5s-41.834 -25.5 -84.501 -31.5s-81 -29.667 -115 -71s-65.333 -126.666 -94 -255.999l-73 -333
c-26 -115.333 -55.333 -216 -88 -302s-60 -149.667 -82 -191s-36.333 -64.333 -43 -69s-23.334 -8.33398 -50.001 -11.001l-108 -13c-25.333 -1.33301 -39.166 3.66699 -41.499 15s-5.66602 54.333 -9.99902 129s-9.16602 130.5 -14.499 167.5
s-24.666 137.833 -57.999 302.5s-55.666 331 -66.999 499c-4.66699 -2.66699 -32.5 -97.167 -83.5 -283.5s-86 -311 -105 -374s-45.5 -130.333 -79.5 -202s-77.667 -131.834 -131 -180.501s-116.666 -73 -189.999 -73c-64 0 -115.5 20.167 -154.5 60.5
s-58.5 77.833 -58.5 112.5c0 21.333 23.5 53.833 70.5 97.5s80.167 65.5 99.5 65.5c21.333 0 34.666 -23.5 39.999 -70.5s17.166 -82.167 35.499 -105.5s40.166 -35 65.499 -35c99.333 0 197 189.333 293 568l30 121c56.667 218.667 102 377 136 475l32 94
c7.33301 20.667 14.5 33.334 21.5 38.001s24.5 9 52.5 13l105 14c15.333 2.66699 27 4 35 4c14.667 0 24.334 -3.66699 29.001 -11s7 -21.333 7 -42c0 -144.667 22.167 -339 66.5 -583s70.833 -416.333 79.5 -517z" />
    <glyph glyph-name="O" unicode="O" horiz-adv-x="1300" 
d="M791 1409c-151.333 -144.667 -261.332 -298.838 -329.999 -462.505s-103 -321.5 -103 -473.5c0 -97.333 19.333 -174.166 58 -230.499s91 -84.5 157 -84.5c132 0 269.5 115.5 412.5 346.5s214.5 445.167 214.5 642.5c0 58.667 -9.5 105.334 -28.5 140.001
s-44.167 52 -75.5 52c-58 0 -111.833 -43.667 -161.5 -131s-74.5 -165 -74.5 -233c0 -48.667 22.667 -76 68 -82c18.667 -2 28 -11 28 -27c0 -29.333 -15 -58.166 -45 -86.499s-61.333 -42.5 -94 -42.5c-40 0 -73.5 18.167 -100.5 54.5s-40.5 81.833 -40.5 136.5
c0 115.333 43.5 227 130.5 335s175.833 162 266.5 162c62 0 111 -24.5 147 -73.5s54 -116.5 54 -202.5c0 -166 -46 -342.667 -138 -530s-207 -341.166 -345 -461.499s-268 -180.5 -390 -180.5c-94.667 0 -172.834 40 -234.501 120s-92.5 183 -92.5 309
c0 134 26.833 269.667 80.5 407s123.5 259.833 209.5 367.5s154.333 175.334 205 203.001s124.667 41.5 222 41.5v-16z" />
    <glyph glyph-name="P" unicode="P" horiz-adv-x="1386" 
d="M928 1427c140.667 0 252.669 -34.166 336.002 -102.499s125 -159.5 125 -273.5c0 -105.333 -30.833 -189.833 -92.5 -253.5s-114.834 -95.5 -159.501 -95.5c-16.667 0 -35.5 7.33301 -56.5 22s-31.5 28 -31.5 40c0 6.66699 15.667 30.667 47 72
c73.333 90.667 110 180.667 110 270c0 75.333 -25.333 135.166 -76 179.499s-119.334 66.5 -206.001 66.5c-130.667 0 -249 -39.833 -355 -119.5s-159 -166.834 -159 -261.501c0 -62.667 28.667 -105.667 86 -129c22.667 -10 34 -23.667 34 -41c0 -18 -25 -39 -75 -63
s-85 -36 -105 -36c-30 0 -58.333 19.833 -85 59.5s-40 82.834 -40 129.501c0 125.333 67.333 246 202 362s301.667 174 501 174zM1116 1167c-44 -39.333 -75.998 -85.166 -95.998 -137.499s-40.333 -161.333 -61 -327s-54.167 -296.167 -100.5 -391.5
s-119.333 -174.833 -219 -238.5s-209.167 -95.5 -328.5 -95.5c-84.667 0 -153.5 21 -206.5 63s-79.5 95.667 -79.5 161c0 24.667 7.66699 44.834 23 60.501s46.666 36.834 93.999 63.501s79.333 40 96 40c11.333 0 21 -3.83301 29 -11.5s12 -16.834 12 -27.501
c0 -6.66699 -3.16699 -31.334 -9.5 -74.001s-9.5 -68 -9.5 -76c0 -79.333 33.333 -119 100 -119c75.333 0 138.666 44.167 189.999 132.5s88.5 226.333 111.5 414s57.833 320.167 104.5 397.5s101.167 132.166 163.5 164.499s105.5 48.5 129.5 48.5
c16.667 0 35.667 -15.667 57 -47z" />
    <glyph glyph-name="Q" unicode="Q" horiz-adv-x="1300" 
d="M1323 221c-82 -83.333 -150.835 -144.832 -206.502 -184.499s-105.5 -59.5 -149.5 -59.5c-42 0 -78.833 13.667 -110.5 41s-69.5 68.333 -113.5 123c-136 -109.333 -259.333 -164 -370 -164c-96.667 0 -175.834 39.667 -237.501 119s-92.5 181.666 -92.5 306.999
c0 134 26.333 268.667 79 404s119.5 254.833 200.5 358.5s147.5 172.834 199.5 207.501s131.333 52 238 52l2 -14c-152 -142.667 -262.333 -297 -331 -463s-103 -325 -103 -477c0 -98.667 19.333 -175.834 58 -231.501s91.667 -83.5 159 -83.5
c44.667 0 95.667 17.667 153 53c-33.333 47.333 -60 78.666 -80 93.999s-43.667 23 -71 23c-2 0 -8.5 -1.16699 -19.5 -3.5s-17.5 -3.5 -19.5 -3.5c-9.33301 0 -14 4.33301 -14 13c0 17.333 19.833 42.833 59.5 76.5s79.834 50.5 120.501 50.5
c31.333 0 59.833 -8.66699 85.5 -26s55.834 -43.666 90.501 -78.999c212.667 271.333 319 535.666 319 792.999c0 58 -9.5 104.167 -28.5 138.5s-44.167 51.5 -75.5 51.5c-58 0 -111.833 -43.667 -161.5 -131s-74.5 -164.333 -74.5 -231c0 -50 22.667 -78 68 -84
c19.333 -2 29 -10.333 29 -25c0 -30 -15.167 -59 -45.5 -87s-61.833 -42 -94.5 -42c-40 0 -73.5 17.833 -100.5 53.5s-40.5 80.834 -40.5 135.501c0 115.333 43.5 227.333 130.5 336s175.167 163 264.5 163c63.333 0 113 -24.833 149 -74.5s54 -118.167 54 -205.5
c0 -274 -116 -558.667 -348 -854c62.667 -92.667 120.667 -139 174 -139c66.667 0 151.334 61.333 254.001 184v-115z" />
    <glyph glyph-name="R" unicode="R" horiz-adv-x="1642" 
d="M1665 221c-78 -84 -147.666 -145.671 -208.999 -185.004s-123.333 -59 -186 -59c-65.333 0 -117.833 21.333 -157.5 64s-59.5 98.667 -59.5 168c0 41.333 9.5 98.333 28.5 171s28.5 128.334 28.5 167.001c0 62 -20.333 94 -61 96c-24.667 2 -37 13.667 -37 35
c0 39.333 14.333 59 43 59l67 -4c62.667 0 112.5 30.667 149.5 92s55.5 135.333 55.5 222c0 202 -114.667 303 -344 303c-146 0 -275.667 -39.5 -389 -118.5s-170 -167.167 -170 -264.5c0 -55.333 27.333 -97 82 -125c26 -13.333 39 -29.666 39 -48.999
c0 -17.333 -25.333 -37.166 -76 -59.499s-85.334 -33.5 -104.001 -33.5c-29.333 0 -55.833 19.167 -79.5 57.5s-35.5 82.166 -35.5 131.499c0 148 75 274.667 225 380s333 158 549 158c181.333 0 322.5 -39 423.5 -117s151.5 -172.667 151.5 -284
c0 -70 -27.833 -138 -83.5 -204s-164.834 -117.333 -327.501 -154c59.333 -34 102.5 -70.833 129.5 -110.5s40.5 -89.5 40.5 -149.5c0 -33.333 -3.5 -70.666 -10.5 -111.999s-10.5 -67.666 -10.5 -78.999c0 -57.333 22.667 -86 68 -86c60.667 0 147.334 68.333 260.001 205
v-115zM1151 1178c-54.667 -44.667 -91.3281 -92.3359 -109.995 -143.003s-37.334 -143.834 -56.001 -279.501s-39.834 -243.667 -63.501 -324s-64.834 -156.166 -123.501 -227.499s-129.5 -127 -212.5 -167s-168.833 -60 -257.5 -60c-96 0 -167.833 23.167 -215.5 69.5
s-71.5 99.833 -71.5 160.5c0 19.333 7.5 36.666 22.5 51.999s45.833 36.333 92.5 63s78.667 40 96 40c22 0 33 -12.667 33 -38c0 -6 -3.5 -28.667 -10.5 -68s-10.5 -62.666 -10.5 -69.999c0 -37.333 10.667 -68.166 32 -92.499s48.333 -36.5 81 -36.5
c69.333 0 130.666 44 183.999 132s90.833 217.833 112.5 389.5s50.167 296.334 85.5 374.001s86.833 140.334 154.5 188.001s128.5 71.5 182.5 71.5c15.333 0 33.666 -11.333 54.999 -34z" />
    <glyph glyph-name="S" unicode="S" horiz-adv-x="1153" 
d="M1067 1245c0 -26 -43.002 -90.0029 -129.002 -192.003h-18c-13.333 5.33301 -21.666 25 -24.999 59c-7.33301 68.667 -31 124.834 -71 168.501s-88 65.5 -144 65.5c-52.667 0 -98 -19.167 -136 -57.5s-57 -84.166 -57 -137.499c0 -38.667 12 -80.167 36 -124.5
s86.5 -114.5 187.5 -210.5s165.833 -172.5 194.5 -229.5s43 -111.167 43 -162.5c0 -118.667 -51.5 -223.167 -154.5 -313.5s-223.5 -135.5 -361.5 -135.5c-114 0 -208 26.5 -282 79.5s-111 96.167 -111 129.5c0 18.667 20.333 62 61 130s64 102 70 102
c21.333 0 36.5 -6.16699 45.5 -18.5s15.167 -35.166 18.5 -68.499c10 -104 35.167 -175.667 75.5 -215s92.833 -59 157.5 -59c70.667 0 132.334 24.5 185.001 73.5s79 105.833 79 170.5c0 33.333 -10.167 68.833 -30.5 106.5s-78 101.667 -173 192
s-157.167 166.833 -186.5 229.5s-44 123.667 -44 183c0 103.333 39 198.333 117 285s181.667 130 311 130c98 0 179.5 -22.5 244.5 -67.5s97.5 -82.5 97.5 -112.5z" />
    <glyph glyph-name="T" unicode="T" horiz-adv-x="1386" 
d="M1395 1362c-19.333 -143.333 -80.334 -215.001 -183.001 -215.001c-36 0 -105 16 -207 48s-190 48 -264 48c-95.333 0 -177.833 -35.333 -247.5 -106s-104.5 -132.334 -104.5 -185.001c0 -51.333 32 -97 96 -137c26 -16.667 39 -31.667 39 -45
c0 -18 -18.5 -42.333 -55.5 -73s-64.833 -46 -83.5 -46c-31.333 0 -60.666 18 -87.999 54s-41 75.333 -41 118c0 82.667 33.667 172.834 101 270.501s155.333 177.334 264 239.001s222.667 92.5 342 92.5c80.667 0 157 -12.167 229 -36.5s117 -36.5 135 -36.5
c16 0 29.667 4.66699 41 14l6 2zM1020 1055c26 0 39 -8.33301 39 -25l-24 -133l-5 -247c-3.33301 -80.667 -15.666 -155 -36.999 -223c-19.333 -63.333 -46.333 -121 -81 -173c-31.333 -48 -69 -90.333 -113 -127c-40.667 -34 -85.334 -62.667 -134.001 -86
c-45.333 -21.333 -93 -37.333 -143 -48c-46 -10.667 -92.333 -16 -139 -16c-108.667 0 -193.834 23.5 -255.501 70.5s-92.5 92.5 -92.5 136.5c0 25.333 22.833 58 68.5 98s80.167 60 103.5 60c28.667 0 43 -26.667 43 -80c0 -86.667 14.167 -142.834 42.5 -168.501
s66.166 -38.5 113.499 -38.5c76.667 0 143.834 24.333 201.501 73s96.5 106.834 116.5 174.501s30.333 167.5 31 299.5s10.5 222.833 29.5 272.5s53.833 92.167 104.5 127.5s94.334 53 131.001 53z" />
    <glyph glyph-name="U" unicode="U" horiz-adv-x="1556" 
d="M1579 221c-152 -162.667 -282.333 -243.994 -391 -243.994c-56.667 0 -109.667 25.667 -159 77s-72 137.666 -68 258.999c-116.667 -224 -249.334 -336 -398.001 -336c-72 0 -129.833 27.667 -173.5 83s-65.5 129.666 -65.5 222.999c0 100.667 40.667 267 122 499
c68.667 198.667 103 330.667 103 396c0 46.667 -10.833 84.167 -32.5 112.5s-49.834 42.5 -84.501 42.5c-52.667 0 -103.667 -31.167 -153 -93.5s-74 -127.5 -74 -195.5c0 -60 22.333 -110.333 67 -151c16.667 -14.667 25 -27 25 -37c0 -22 -14.667 -49 -44 -81
s-55.666 -48 -78.999 -48c-27.333 0 -53.333 19.667 -78 59s-37 82.333 -37 129c0 127.333 46 244.166 138 350.499s192.333 159.5 301 159.5c85.333 0 154.666 -33.167 207.999 -99.5s80 -153.166 80 -260.499c0 -126 -39.333 -299.333 -118 -520
c-54.667 -152.667 -82 -255.667 -82 -309c0 -34.667 7.83301 -61.834 23.5 -81.501s37.167 -29.5 64.5 -29.5c51.333 0 100.333 34.667 147 104s83.834 142 111.501 218s61.167 187 100.5 333l87 311c24 82.667 45 150.5 63 203.5s29.5 83 34.5 90s13.333 11.833 25 14.5
s33.834 6 66.501 10l143 16c20.667 0 29.667 -4.66699 27 -14l-47 -170c-44 -156.667 -90.833 -342.334 -140.5 -557.001s-74.5 -351.334 -74.5 -410.001c0 -44 8.33301 -79.167 25 -105.5s39 -39.5 67 -39.5c31.333 0 65.333 13.667 102 41s92.667 82.666 168 165.999v-115
z" />
    <glyph glyph-name="V" unicode="V" horiz-adv-x="1386" 
d="M1268 1425c21.333 0 43 -32.666 65 -97.999s33 -133 33 -203c0 -155.333 -34.5 -327.5 -103.5 -516.5s-157.333 -341.333 -265 -457s-219.5 -173.5 -335.5 -173.5c-94 0 -170.5 33.333 -229.5 100s-88.5 153.667 -88.5 261c0 100.667 36.333 247.334 109 440.001
c66.667 183.333 100 314.333 100 393c0 52 -10 92.333 -30 121s-47.667 43 -83 43c-54.667 0 -106.167 -30.5 -154.5 -91.5s-72.5 -126.5 -72.5 -196.5c0 -56.667 14.667 -98.834 44 -126.501s44 -48.5 44 -62.5c0 -24 -14.5 -51.833 -43.5 -83.5s-54.833 -47.5 -77.5 -47.5
c-28 0 -54 19.167 -78 57.5s-36 81.166 -36 128.499c0 121.333 43.5 237.333 130.5 348s188.833 166 305.5 166c89.333 0 160.833 -33.5 214.5 -100.5s80.5 -156.833 80.5 -269.5c0 -52 -6.66699 -110.667 -20 -176s-45.833 -167.833 -97.5 -307.5
s-77.5 -245.5 -77.5 -317.5c0 -47.333 13.833 -86.5 41.5 -117.5s62.5 -46.5 104.5 -46.5c64 0 131 38.167 201 114.5s128 175.333 174 297s69 239.167 69 352.5c0 107.333 -32.667 223.333 -98 348c-20.667 37.333 -31 63.333 -31 78c0 25.333 29.167 55.5 87.5 90.5
s97.5 52.5 117.5 52.5z" />
    <glyph glyph-name="W" unicode="W" horiz-adv-x="1962" 
d="M961 315c-120 -225.333 -250.665 -337.999 -391.998 -337.999c-74 0 -133.333 27.167 -178 81.5s-67 126.166 -67 215.499c0 104 37.167 262 111.5 474s111.5 362 111.5 450c0 39.333 -11.167 72 -33.5 98s-50.166 39 -83.499 39c-51.333 0 -102.333 -31.333 -153 -94
s-76 -126.667 -76 -192c0 -50 22.667 -102 68 -156c18.667 -22.667 28 -38.334 28 -47.001c0 -10 -14.333 -32.333 -43 -67s-53.334 -52 -74.001 -52c-22 0 -47 16 -75 48s-42 79.667 -42 143c0 128.667 45.167 245.667 135.5 351s190.166 158 299.499 158
c82 0 151.333 -34 208 -102s85 -152.667 85 -254c0 -106.667 -34.167 -257.5 -102.5 -452.5s-102.5 -325.5 -102.5 -391.5c0 -31.333 8 -56.166 24 -74.499s37.333 -27.5 64 -27.5c58 0 115.667 47.333 173 142s109.666 230.334 156.999 407.001l94 352
c36.667 138.667 77.667 259.667 123 363c4.66699 11.333 35.834 20.166 93.501 26.499s99.5 9.5 125.5 9.5s39 -5.33301 39 -16l-183 -698c-52.667 -204.667 -79 -354.334 -79 -449.001c0 -41.333 8.66699 -74.166 26 -98.499s40.666 -36.5 69.999 -36.5
c43.333 0 102.5 35.5 177.5 106.5s138.167 161.667 189.5 272s77 223.166 77 338.499c0 123.333 -30 246 -90 368c-16.667 35.333 -25 57.333 -25 66c0 28.667 27.5 60.334 82.5 95.001s94.5 52 118.5 52c22.667 0 45.5 -30.167 68.5 -90.5s34.5 -123.5 34.5 -189.5
c0 -175.333 -41 -354.833 -123 -538.5s-184 -334.5 -306 -452.5s-232.333 -177 -331 -177c-70 0 -125.5 28.167 -166.5 84.5s-60.5 140.833 -58.5 253.5z" />
    <glyph glyph-name="X" unicode="X" horiz-adv-x="1473" 
d="M1495 221c-70.667 -74 -151.33 -133.168 -241.997 -177.501s-172.334 -66.5 -245.001 -66.5c-86 0 -162 34.667 -228 104s-102.667 174.666 -110 315.999c-133.333 -280 -277.333 -420 -432 -420c-54.667 0 -99.834 19.167 -135.501 57.5s-53.5 67.833 -53.5 88.5
c0 15.333 26.333 47.5 79 96.5s87 73.5 103 73.5c15.333 0 25.833 -15.167 31.5 -45.5s18.167 -55 37.5 -74s42.333 -28.5 69 -28.5c55.333 0 114 59.167 176 177.5s116 265.833 162 442.5s69 302 69 376c0 59.333 -12.5 106.5 -37.5 141.5s-58.833 52.5 -101.5 52.5
c-62.667 0 -123.667 -33.667 -183 -101s-89 -136.666 -89 -207.999c0 -87.333 45 -131 135 -131c24.667 0 37 -7 37 -21c0 -12 -16.5 -40.833 -49.5 -86.5s-69.167 -68.5 -108.5 -68.5c-43.333 0 -81.166 20.167 -113.499 60.5s-48.5 88.5 -48.5 144.5
c0 114 50.833 226 152.5 336s214.167 165 337.5 165c91.333 0 165.166 -30 221.499 -90s84.166 -155.333 83.499 -286c61.333 128.667 120.833 223.5 178.5 284.5s110.167 91.5 157.5 91.5c31.333 0 60.333 -11 87 -33s40 -45.667 40 -71c0 -27.333 -15 -60.166 -45 -98.499
s-53.333 -57.5 -70 -57.5c-12.667 0 -27 14.333 -43 43s-35 43 -57 43c-41.333 0 -87.5 -50.333 -138.5 -151s-96 -226 -135 -376s-58.5 -263 -58.5 -339c0 -78 19.833 -140.5 59.5 -187.5s92.167 -70.5 157.5 -70.5c116 0 232.667 69.667 350 209v-115z" />
    <glyph glyph-name="Y" unicode="Y" horiz-adv-x="1556" 
d="M1579 221c-66.667 -82.667 -188.998 -151.665 -366.998 -206.998c-63.333 -181.333 -141 -315 -233 -401s-187.667 -129 -287 -129c-50.667 0 -91.334 13.833 -122.001 41.5s-46 64.167 -46 109.5c0 143.333 141.333 264.333 424 363l23 94c66 268.667 107 429 123 481
l57 191c-7.33301 -14 -23 -47.667 -47 -101c-115.333 -258.667 -218 -435.5 -308 -530.5s-178.667 -142.5 -266 -142.5c-66.667 0 -120.834 26 -162.501 78s-62.5 120 -62.5 204c0 105.333 37.5 266 112.5 482s112.5 360 112.5 432c0 44 -11.5 80.5 -34.5 109.5
s-52.167 43.5 -87.5 43.5c-54.667 0 -106 -30.333 -154 -91s-72 -125.667 -72 -195c0 -63.333 22.667 -114.666 68 -153.999c16 -14.667 24 -26.334 24 -35.001c0 -20 -13.167 -47.5 -39.5 -82.5s-52.5 -52.5 -78.5 -52.5c-28 0 -54.833 19.667 -80.5 59s-38.5 81 -38.5 125
c0 118 43.333 234 130 348s190 171 310 171c85.333 0 155.166 -33.5 209.499 -100.5s81.5 -153.833 81.5 -260.5c0 -128 -41 -305.333 -123 -532c-56 -156.667 -84 -267.334 -84 -332.001c0 -60 22 -90 66 -90c81.333 0 185.333 122.167 312 366.5s241 538.5 343 882.5
c4.66699 17.333 12.834 28.666 24.501 33.999s51.667 12 120 20s104.833 12 109.5 12c17.333 0 25 -5 23 -15l-54 -217l-155 -678c-21.333 -93.333 -57 -231 -107 -413c137.333 43.333 249.333 119 336 227v-115zM924.002 -89.998
c-100 -34 -178.998 -75.833 -236.998 -125.5s-87 -96.5 -87 -140.5c0 -24.667 8.66699 -45.167 26 -61.5s38.666 -24.5 63.999 -24.5c50 0 93.167 28.667 129.5 86s71.166 146 104.499 266z" />
    <glyph glyph-name="Z" unicode="Z" horiz-adv-x="1153" 
d="M1176 221c-88 -84 -169.835 -145.668 -245.502 -185.001s-157.167 -59 -244.5 -59c-56.667 0 -128 17.833 -214 53.5s-156.667 53.5 -212 53.5c-35.333 0 -61.5 -5.5 -78.5 -16.5s-29.833 -30.167 -38.5 -57.5c-7.33301 -22 -18 -33 -32 -33
c-31.333 0 -51.166 1.33301 -59.499 4s-12.5 9.66699 -12.5 21c0 13.333 17.333 55.833 52 127.5s92 159.167 172 262.5s208.667 249 386 437l68 72c128 136 210.667 233.667 248 293c-45.333 -23.333 -97.333 -35 -156 -35c-50 0 -115.5 9.16699 -196.5 27.5
s-139.167 27.5 -174.5 27.5c-52 0 -94.667 -12.5 -128 -37.5s-50 -56.833 -50 -95.5c0 -35.333 16.667 -67 50 -95s50 -50 50 -66c0 -19.333 -16.333 -43.333 -49 -72s-55.667 -43 -69 -43c-22 0 -44 16.833 -66 50.5s-33 68.834 -33 105.501
c0 111.333 49.333 216.833 148 316.5s203 149.5 313 149.5c28.667 0 87.834 -9.16699 177.501 -27.5s151.5 -27.5 185.5 -27.5c46.667 0 80.834 8.83301 102.501 26.5s36.5 26.5 44.5 26.5c24.667 0 37 -5.33301 37 -16c0 -32.667 -15.5 -78.167 -46.5 -136.5
s-68.5 -115.333 -112.5 -171s-148.667 -173.5 -314 -353.5s-269 -295 -311 -345s-79 -103.667 -111 -161c62.667 18 105.667 29.333 129 34s54.666 7 93.999 7c68 0 149.833 -16.833 245.5 -50.5s166.167 -50.5 211.5 -50.5c42 0 81 12.667 117 38s77 64 123 116v-115z" />
    <glyph glyph-name="bracketleft" unicode="[" horiz-adv-x="981" 
d="M997 1427l-26 -92h-219l-443 -1702h219l-26 -92h-465l491 1886h469z" />
    <glyph glyph-name="backslash" unicode="\" horiz-adv-x="812" 
d="M756 -453h-230l-448 1883h231z" />
    <glyph glyph-name="bracketright" unicode="]" horiz-adv-x="981" 
d="M979 1427l-502 -1886h-465l21 92h223l449 1702h-220l25 92h469z" />
    <glyph glyph-name="asciicircum" unicode="^" horiz-adv-x="1167" 
d="M1106 666h-160l-295 512l-291 -512h-151l409 718h82z" />
    <glyph glyph-name="underscore" unicode="_" horiz-adv-x="1024" 
d="M1040 -256h-1060v102h1060v-102z" />
    <glyph glyph-name="grave" unicode="`" horiz-adv-x="682" 
d="M414 975l-47 -26.999c-154 91.333 -266 208 -336 350l231 39c17.333 -114.667 68 -235.334 152 -362.001z" />
    <glyph glyph-name="a" unicode="a" 
d="M1090 221c-106.667 -101.333 -182.999 -167.335 -228.999 -198.002s-90 -46 -132 -46c-105.333 0 -155 93 -149 279c-66.667 -95.333 -128.167 -165.666 -184.5 -210.999s-114.5 -68 -174.5 -68c-58.667 0 -108.5 27.5 -149.5 82.5s-61.5 122.5 -61.5 202.5
c0 100 27.5 195.333 82.5 286s125.5 164 211.5 220s162 84 228 84c83.333 0 141.666 -38.333 174.999 -115l204 113h56l-88 -293c-45.333 -147.333 -68 -248.333 -68 -303c0 -57.333 20.333 -86 61 -86c26 0 54.667 13.833 86 41.5s75.333 69.834 132 126.501v-115z
M358.001 165.998c66.667 0 129.501 56.832 188.501 170.499s88.5 218.5 88.5 314.5c0 37.333 -8.33301 66.5 -25 87.5s-39 31.5 -67 31.5c-66.667 0 -129.834 -56.667 -189.501 -170s-89.5 -217.666 -89.5 -312.999c0 -36 8.83301 -65.167 26.5 -87.5
s40.167 -33.5 67.5 -33.5z" />
    <glyph glyph-name="b" unicode="b" horiz-adv-x="897" 
d="M920 221c-46 -49.333 -101.998 -73.999 -167.998 -73.999c-52 0 -107.333 24.667 -166 74c-71.333 -82 -134.5 -142.667 -189.5 -182s-114.833 -59 -179.5 -59c-58 0 -106.667 24 -146 72s-59 107.667 -59 179c0 139.333 40.667 327.166 122 563.499
s161 415.166 239 536.499c88 28 165.5 50.667 232.5 68s105.5 26 115.5 26c19.333 0 36.166 -12.833 50.499 -38.5s21.5 -56.5 21.5 -92.5c0 -74.667 -31 -162.167 -93 -262.5s-142.333 -199.833 -241 -298.5l-131 -131c-41.333 -145.333 -62 -252.333 -62 -321
c0 -38 8.66699 -68.333 26 -91s40 -34 68 -34c32.667 0 62.167 10.333 88.5 31s55.833 52.667 88.5 96c-33.333 57.333 -50 116 -50 176c0 96.667 26.167 186 78.5 268s108.166 123 167.499 123c23.333 0 42.5 -10.333 57.5 -31s22.5 -48 22.5 -82
c0 -109.333 -61.333 -258.666 -184 -447.999c36.667 -45.333 78.334 -68 125.001 -68c29.333 0 54.666 6.83301 75.999 20.5s51.333 45.167 90 94.5v-115zM377.002 756.001c108 106 190 203.833 246 293.5s84 157.5 84 203.5c0 18.667 -4.16699 34 -12.5 46
s-18.5 18 -30.5 18c-78 0 -173.667 -187 -287 -561z" />
    <glyph glyph-name="c" unicode="c" horiz-adv-x="748" 
d="M770 221c-85.333 -84 -163.501 -145.67 -234.501 -185.003s-145.167 -59 -222.5 -59c-86.667 0 -158.167 28.167 -214.5 84.5s-84.5 127.833 -84.5 214.5c0 142 51.833 273.167 155.5 393.5s215.834 180.5 336.501 180.5c59.333 0 107.666 -16.5 144.999 -49.5
s56 -75.833 56 -128.5c0 -18.667 -3.5 -32.667 -10.5 -42s-20.167 -18.666 -39.5 -27.999l-116 -55c-14 -6.66699 -24.333 -10 -31 -10c-9.33301 0 -14 6.66699 -14 20c0 5.33301 2 22.833 6 52.5s6 47.834 6 54.501c0 29.333 -6.16699 53 -18.5 71s-28.833 27 -49.5 27
c-48.667 0 -93.167 -36 -133.5 -108s-60.5 -154 -60.5 -246c0 -79.333 19 -142.666 57 -189.999s88.667 -71 152 -71c54 0 104.833 15.5 152.5 46.5s101.834 78.5 162.501 142.5v-115z" />
    <glyph glyph-name="d" unicode="d" 
d="M1090 221c-96 -95.333 -169.168 -159.834 -219.501 -193.501s-94.833 -50.5 -133.5 -50.5c-47.333 0 -84.833 23 -112.5 69s-41.834 113.333 -42.501 202c-54.667 -88.667 -114.167 -156 -178.5 -202s-122.5 -69 -174.5 -69c-56.667 0 -106.667 26.833 -150 80.5
s-65 116.5 -65 188.5c0 148.667 54.167 286.5 162.5 413.5s224.833 190.5 349.5 190.5c34.667 0 61.834 -5 81.501 -15s41.167 -27 64.5 -51l143 598c116.667 27.333 195.334 41 236.001 41c13.333 0 20 -5.33301 20 -16c0 -7.33301 -16.667 -76.333 -50 -207
c-133.333 -522.667 -200 -838 -200 -946c0 -25.333 5.33301 -45.666 16 -60.999s24.667 -23 42 -23c42.667 0 113 55.333 211 166v-115zM366.999 167.999c65.333 0 126.334 55.333 183.001 166s85 214.334 85 311.001c0 39.333 -8.83301 70.666 -26.5 93.999
s-40.834 35 -69.501 35c-62 0 -122 -57.833 -180 -173.5s-87 -220.167 -87 -313.5c0 -36.667 8.5 -65.667 25.5 -87s40.167 -32 69.5 -32z" />
    <glyph glyph-name="e" unicode="e" horiz-adv-x="748" 
d="M770 221c-84.667 -83.333 -160.668 -144.832 -228.001 -184.499s-141.666 -59.5 -222.999 -59.5c-90.667 0 -163.834 29 -219.501 87s-83.5 134.333 -83.5 229c0 141.333 49 269.166 147 383.499s206.667 171.5 326 171.5c62 0 111.667 -16 149 -48s56 -74 56 -126
c0 -138 -146.667 -250 -440 -336c26.667 -130 96.334 -195 209.001 -195c44 0 86 11.833 126 35.5s100.333 76.167 181 157.5v-115zM245.999 406.001c170.667 48 256 136.667 256 266c0 64 -23.333 96 -70 96c-44 0 -86 -33.5 -126 -100.5s-60 -154.167 -60 -261.5z" />
    <glyph glyph-name="f" unicode="f" horiz-adv-x="811" 
d="M834 221c-69.333 -78 -138.004 -138.167 -206.004 -180.5s-128.667 -63.5 -182 -63.5c-25.333 0 -60 9.66699 -104 29c-28 -146.667 -52.667 -305 -74 -475c-69.333 -9.33301 -152.666 -23.666 -249.999 -42.999c21.333 182.667 58.333 419.667 111 711
c-7.33301 12.667 -20.333 44.667 -39 96l-67 -74h-23v90l190 197c36.667 179.333 66.334 309 89.001 389s54.334 168.5 95.001 265.5s66.334 152.667 77.001 167s36.5 28 77.5 41s84.833 25.333 131.5 37s71.667 17.5 75 17.5c25.333 0 46 -16.5 62 -49.5
s24 -76.5 24 -130.5c0 -93.333 -24.667 -183.333 -74 -270s-142.666 -193.334 -279.999 -320.001l-84 -417c32.667 -70 81.667 -105 147 -105c93.333 0 194.666 67.667 303.999 203v-115zM497.996 791c78 68 139.165 141.167 183.498 219.5s66.5 150.5 66.5 216.5
c0 28 -5.16699 51 -15.5 69s-23.166 27 -38.499 27c-29.333 0 -59.166 -38.333 -89.499 -115s-65.833 -215.667 -106.5 -417z" />
    <glyph glyph-name="g" unicode="g" horiz-adv-x="981" 
d="M1004 221c-84.667 -88.667 -186.003 -154 -304.003 -196c-55.333 -172.667 -125.5 -305.667 -210.5 -399s-175.167 -140 -270.5 -140c-52 0 -94 16.333 -126 49s-48 75.667 -48 129c0 71.333 31.833 135.333 95.5 192s171.834 111.334 324.501 164.001l43 197
c-64 -72 -119.333 -124.833 -166 -158.5s-93.667 -50.5 -141 -50.5c-55.333 0 -100.666 26 -135.999 78s-53 119.667 -53 203c0 136 51.833 263.5 155.5 382.5s213.834 178.5 330.501 178.5c64.667 0 122 -27.333 172 -82c30 10.667 69 26.667 117 48l71 32h23
c-26 -78.667 -46 -155.334 -60 -230.001l-94 -501c90 34 182.333 107 277 219v-115zM359.997 188c47.333 0 89.334 28.001 126.001 84.001s65.167 127 85.5 213s30.5 145.667 30.5 179c0 31.333 -7.83301 57.166 -23.5 77.499s-35.167 30.5 -58.5 30.5
c-70.667 0 -132.334 -47.667 -185.001 -143s-79 -192.333 -79 -291c0 -46 9.5 -82.5 28.5 -109.5s44.167 -40.5 75.5 -40.5zM443.998 -67.999c-215.333 -77.333 -323 -166.667 -323 -268c0 -30 9 -54.5 27 -73.5s41 -28.5 69 -28.5c48 0 89.667 30.333 125 91
s69.333 153.667 102 279z" />
    <glyph glyph-name="h" unicode="h" horiz-adv-x="981" 
d="M1004 221c-158 -164 -288 -245.997 -390 -245.997c-45.333 0 -82.833 15.5 -112.5 46.5s-44.5 70.167 -44.5 117.5c0 80 30.667 192.667 92 338c32.667 78.667 49 130 49 154c0 27.333 -13 41 -39 41c-26.667 0 -65.334 -18.167 -116.001 -54.5s-104 -85.833 -160 -148.5
c-23.333 -122.667 -35 -270 -35 -442l-223 -52c-8.66699 70 -13 146 -13 228c0 198.667 27.333 383.667 82 555s140.667 353 258 545c87.333 35.333 163.5 64.166 228.5 86.499s102.167 33.5 111.5 33.5c17.333 0 32 -14 44 -42s18 -63 18 -105
c0 -70.667 -21.667 -148.834 -65 -234.501s-111.333 -189.167 -204 -310.5c88.667 51.333 147.667 83.666 177 96.999s59.333 20 90 20c34 0 61.5 -12.167 82.5 -36.5s31.5 -56.5 31.5 -96.5c0 -60 -23.833 -153 -71.5 -279s-71.5 -205 -71.5 -237
c0 -14.667 4.5 -27.667 13.5 -39s19.5 -17 31.5 -17c42.667 0 121.334 64.333 236.001 193v-115zM311 631.003c238 276.667 357 480.666 357 611.999c0 40 -11 60 -33 60c-36.667 0 -89 -65.667 -157 -197s-123.667 -289.666 -167 -474.999z" />
    <glyph glyph-name="i" unicode="i" horiz-adv-x="492" 
d="M494 1239c0 -160 -59 -240 -177 -240c-57.333 0 -106.333 17.333 -147 52c38.667 58.667 68.667 124.667 90 198c52.667 -32.667 95 -49 127 -49c36 0 71.667 13 107 39zM514 221c-156 -164 -272.668 -246.001 -350.001 -246.001c-42.667 0 -78.667 21.833 -108 65.5
s-44 98.5 -44 164.5c0 142 48 338.667 144 590l254 53h12l-100 -313c-41.333 -129.333 -62 -221.666 -62 -276.999c0 -22 4.83301 -39.833 14.5 -53.5s21.834 -20.5 36.501 -20.5c26 0 52.167 9.5 78.5 28.5s67.833 60.167 124.5 123.5v-115z" />
    <glyph glyph-name="j" unicode="j" horiz-adv-x="748" 
d="M748 1241c-12.667 -162.667 -80.332 -244 -202.999 -244c-57.333 0 -108 19.333 -152 58c58 74 92.333 138 103 192c53.333 -32.667 97.666 -49 132.999 -49c40 0 79.667 14.333 119 43zM770.002 221c-62.667 -63.333 -140.333 -120 -233 -170
c-24.667 -182 -71.167 -321.667 -139.5 -419s-138.166 -146 -209.499 -146c-44.667 0 -82.667 18.5 -114 55.5s-47 82.5 -47 136.5c0 130.667 88 240.667 264 330l74 602c-138.667 -173.333 -252.667 -303 -342 -389h-23v90c88.667 84.667 208 224.667 358 420l62 80
c70 8 148.333 21 235 39c-29.333 -158.667 -64 -393 -104 -703c61.333 30.667 133.666 93 216.999 187zM285.003 -84c-56 -26 -100.167 -61.167 -132.5 -105.5s-48.5 -89.833 -48.5 -136.5c0 -30 7 -55.5 21 -76.5s30.333 -31.5 49 -31.5c46 0 76 58.667 90 176z" />
    <glyph glyph-name="k" unicode="k" horiz-adv-x="981" 
d="M1004 223c-151.333 -165.333 -276.999 -248.002 -376.999 -248.002c-48 0 -88.333 16.833 -121 50.5s-49 75.167 -49 124.5c0 23.333 4 58.333 12 105s12 73 12 79c0 30.667 -17.333 46.5 -52 47.5s-52 14.5 -52 40.5c0 22.667 4.83301 38.5 14.5 47.5
s27.834 13.5 54.501 13.5c73.333 2 128 17.167 164 45.5s54 61.833 54 100.5c0 27.333 -9.83301 49.833 -29.5 67.5s-44.834 26.5 -75.501 26.5c-16.667 0 -32.667 -2 -48 -6c-16 -4 -31.333 -10 -46 -18c-15.333 -8.66699 -31.333 -19.667 -48 -33c-16 -14 -33 -31 -51 -51
c-17.333 -19.333 -36.333 -42.333 -57 -69c-10.667 -14 -24 -79.667 -40 -197c-8 -60.667 -13.333 -116.667 -16 -168c-2.66699 -48 -3 -102.333 -1 -163l-227 -38c-8.66699 50.667 -13 112.667 -13 186c0 200 27 391 81 573s142.333 369 265 561
c95.333 38.667 177.666 68.834 246.999 90.501s108 32.5 116 32.5c16 0 31.667 -16 47 -48s23 -65.667 23 -101c0 -59.333 -19.667 -124.166 -59 -194.499s-100.333 -155.166 -183 -254.499c56.667 16.667 103.667 25 141 25c62 0 112.667 -15.833 152 -47.5
s59 -71.834 59 -120.501c0 -110.667 -99.667 -192 -299 -244c78 -18 117 -63.667 117 -137l-6 -90c0 -40.667 19 -61 57 -61c26.667 0 57 13 91 39s81.667 75.667 143 149v-115zM348.001 704.998l66.001 72.999c195.333 220 293 375 293 465c0 41.333 -18 62 -54 62
c-41.333 0 -88.833 -48.667 -142.5 -146s-107.834 -248.666 -162.501 -453.999z" />
    <glyph glyph-name="l" unicode="l" horiz-adv-x="662" 
d="M684 221c-90.667 -83.333 -170.166 -144.832 -238.499 -184.499s-133.5 -59.5 -195.5 -59.5c-71.333 0 -128.833 27.667 -172.5 83s-65.5 129.666 -65.5 222.999c0 140 30.333 308 91 504s134.334 376.667 221.001 542l254 94c8 2.66699 14 4 18 4
c19.333 0 35.166 -14.167 47.499 -42.5s18.5 -66.5 18.5 -114.5c0 -136 -31.333 -267.667 -94 -395s-160.667 -263.333 -294 -408c-5.33301 -69.333 -8 -117 -8 -143c0 -58 10.667 -104 32 -138s49.666 -51 84.999 -51c36 0 74.333 13 115 39s102.667 80 186 162v-115z
M301.001 612.001c84.667 94 153.332 199.334 205.999 316.001s79 217 79 301c0 24.667 -3.66699 44.5 -11 59.5s-16.666 22.5 -27.999 22.5c-24.667 0 -60.5 -61.333 -107.5 -184s-93.167 -294.334 -138.5 -515.001z" />
    <glyph glyph-name="m" unicode="m" horiz-adv-x="1473" 
d="M1495 221c-83.333 -81.333 -154.664 -142.335 -213.997 -183.002s-117 -61 -173 -61c-44 0 -78.833 15.167 -104.5 45.5s-38.5 71.166 -38.5 122.499c0 72 18 163.333 54 274s54 178 54 202c0 21.333 -11 32 -33 32c-6.66699 0 -14.667 -2.33301 -24 -7
c-10 -4.66699 -21.333 -11.334 -34 -20.001c-12.667 -9.33301 -26.334 -20.666 -41.001 -33.999s-30 -28.666 -46 -45.999c-17.333 -17.333 -34.666 -36.333 -51.999 -57c-29.333 -34.667 -46.666 -63.667 -51.999 -87l-33 -143l-60 -236l-254 -46l97 412
c7.33301 30 16 74 26 132s15 92.667 15 104c0 22.667 -7.66699 34 -23 34c-4.66699 0 -11.334 -2.33301 -20.001 -7c-10 -4.66699 -21.333 -11.667 -34 -21c-14.667 -10.667 -30.334 -23.334 -47.001 -38.001c-18 -16 -37.333 -34.333 -58 -55
c-22 -22 -44.667 -46.333 -68 -73c-32 -36 -52 -78 -60 -126c-10.667 -57.333 -18 -108.666 -22 -153.999c-4.66699 -45.333 -7.33398 -96 -8.00098 -152l-222 -53c-5.33301 76.667 -8 140.667 -8 192c0 122 12.667 228.167 38 318.5s66.666 195.833 123.999 316.5l242 47
c-43.333 -108.667 -77 -213.667 -101 -315c179.333 208.667 316.666 313 411.999 313c34.667 0 62.834 -14.167 84.501 -42.5s32.5 -65.5 32.5 -111.5c0 -21.333 -3.33301 -60.666 -10 -117.999c112.667 112.667 193.5 186.167 242.5 220.5s94.167 51.5 135.5 51.5
c36.667 0 66.667 -14.667 90 -44s35 -66.666 35 -111.999c0 -71.333 -19.667 -163 -59 -275s-59 -186 -59 -222c0 -37.333 13.667 -56 41 -56c17.333 0 41.5 11.5 72.5 34.5s85.167 75.833 162.5 158.5v-115z" />
    <glyph glyph-name="n" unicode="n" horiz-adv-x="981" 
d="M1004 221c-154 -162.667 -286 -243.999 -396 -243.999c-44.667 0 -80.667 15.667 -108 47s-41 73.333 -41 126c0 71.333 29.333 180.333 88 327c31.333 78.667 47 128.667 47 150s-8.33301 32 -25 32c-9.33301 0 -21.666 -4.66699 -36.999 -14
c-14 -9.33301 -30.333 -22.333 -49 -39c-16.667 -15.333 -35.334 -34 -56.001 -56c-18 -18.667 -37.333 -40 -58 -64l-56 -65c-24.667 -30 -40 -61.667 -46 -95c-10 -56.667 -16.667 -108.667 -20 -156c-2 -35.333 -3 -83 -3 -143l-221 -52c-7.33301 90 -11 157 -11 201
c0 107.333 12.5 209 37.5 305s65.167 204 120.5 324l244 47c-51.333 -138 -85 -246.667 -101 -326c109.333 122 196.166 206.5 260.499 253.5s121.5 70.5 171.5 70.5c34 0 62.333 -12.833 85 -38.5s34 -57.834 34 -96.501c0 -64 -28.667 -169.333 -86 -316
c-39.333 -100.667 -59 -166 -59 -196c0 -40 16.333 -60 49 -60c48.667 0 127.334 64.333 236.001 193v-115z" />
    <glyph glyph-name="o" unicode="o" horiz-adv-x="897" 
d="M920 221c-34 -30 -67 -51.167 -99 -63.5s-57.333 -18.5 -76 -18.5c-48 0 -95.667 18.667 -143 56c-96 -145.333 -206 -218 -330 -218c-77.333 0 -140 29 -188 87s-72 135 -72 231c0 152 54 282.5 162 391.5s237 163.5 387 163.5c56.667 0 98.167 -6.16699 124.5 -18.5
s42.5 -26.833 48.5 -43.5s9 -37.667 9 -63c0 -124.667 -34 -277.667 -102 -459c34 -31.333 69.667 -47 107 -47c44.667 0 102 39 172 117v-115zM590 780c-10 4 -24.332 5.99805 -42.999 5.99805c-86.667 0 -154.5 -45.333 -203.5 -136s-73.5 -196.667 -73.5 -318
c0 -67.333 10.667 -119.666 32 -156.999s51 -56 89 -56c47.333 0 98.666 43.667 153.999 131c-62.667 78.667 -94 163.334 -94 254.001c0 106.667 46.333 198.667 139 276z" />
    <glyph glyph-name="p" unicode="p" horiz-adv-x="1153" 
d="M500 678c48 58 93.333 100.832 136 128.499s90 41.5 142 41.5c67.333 0 122.166 -25.833 164.499 -77.5s63.5 -119.5 63.5 -203.5c0 -147.333 -50.833 -282.5 -152.5 -405.5s-212.167 -184.5 -331.5 -184.5c-33.333 0 -59.666 3.66699 -78.999 11
s-44.666 24.333 -75.999 51c-48 -211.333 -79 -380.666 -93 -507.999l-254 -45c47.333 312 107.666 628 180.999 948c-88 -115.333 -147.333 -186.333 -178 -213h-23v90c126.667 136.667 231 302.667 313 498l226 41zM385 142.999
c34.667 -57.333 73.002 -85.999 115.002 -85.999c67.333 0 126.833 51.167 178.5 153.5s77.5 202.166 77.5 299.499c0 51.333 -10.5 92.833 -31.5 124.5s-48.167 47.5 -81.5 47.5c-26 0 -53.333 -11.667 -82 -35s-50.334 -50.5 -65.001 -81.5
s-31.334 -85.167 -50.001 -162.5z" />
    <glyph glyph-name="q" unicode="q" 
d="M1090 221c-251.333 -259.333 -410.002 -488.666 -476.002 -687.999c-108.667 -13.333 -194.667 -29 -258 -47l207 717c-118 -150.667 -232 -226 -342 -226c-60.667 0 -111 23.167 -151 69.5s-60 105.166 -60 176.499c0 96.667 27.833 194.667 83.5 294
s127.334 180 215.001 242s173.834 93 258.501 93c87.333 0 145.333 -41 174 -123c70 38.667 129.667 79.667 179 123h67l-262 -942c110 154 231.667 296 365 426v-115zM353.998 154c75.333 0 146.831 61.499 214.498 184.499s101.5 229.167 101.5 318.5
c0 34 -8.66699 62 -26 84s-38.666 33 -63.999 33c-79.333 0 -151.833 -64.667 -217.5 -194s-98.5 -240.666 -98.5 -333.999c0 -25.333 8.83301 -47 26.5 -65s38.834 -27 63.501 -27z" />
    <glyph glyph-name="r" unicode="r" horiz-adv-x="748" 
d="M770 221c-167.333 -164 -296.334 -245.999 -387.001 -245.999c-40.667 0 -75 17.167 -103 51.5s-42 76.833 -42 127.5c0 94 50.333 220 151 378c-49.333 -25.333 -103.333 -43 -162 -53c-43.333 -80 -111.333 -166 -204 -258h-23v90c52 54 99 112 141 174
c-57.333 25.333 -86 63 -86 113c0 51.333 17.5 106.166 52.5 164.499s83.167 87.5 144.5 87.5c52 0 78 -26.667 78 -80c0 -42 -15 -102 -45 -180c110.667 12 207.334 96.667 290.001 254l91 4l-93 -256c-38.667 -108 -63.667 -181.5 -75 -220.5s-17 -73.5 -17 -103.5
c0 -28 6.5 -50.333 19.5 -67s30.5 -25 52.5 -25c24 0 47 8.16699 69 24.5s71.333 61.5 148 135.5v-115z" />
    <glyph glyph-name="s" unicode="s" horiz-adv-x="831" 
d="M330 807c46 12 92.3311 21.834 138.998 29.501s74.667 11.5 84 11.5c6.66699 0 10 -2.66699 10 -8c0 -10 -2.66699 -20.333 -8 -31c-10.667 -30.667 -16 -60 -16 -88c0 -34.667 20 -82 60 -142s60 -115.667 60 -167c0 -102 -48.833 -200.333 -146.5 -295
s-198.834 -142 -303.501 -142c-45.333 0 -86.666 12 -123.999 36s-56 49.667 -56 77c0 16 18.5 46.333 55.5 91s63.5 67 79.5 67c21.333 0 40.333 -27.333 57 -82s45.334 -82 86.001 -82s78.834 18.833 114.501 56.5s53.5 78.167 53.5 121.5c0 42 -22.667 98 -68 168
s-75.333 128.667 -90 176c-77.333 -124.667 -175.333 -252.334 -294 -383.001h-23v90c163.333 174 273.333 339.333 330 496z" />
    <glyph glyph-name="t" unicode="t" horiz-adv-x="575" 
d="M598 221c-84 -83.333 -156.669 -144.834 -218.002 -184.501s-119.666 -59.5 -174.999 -59.5c-57.333 0 -103.833 24.167 -139.5 72.5s-53.5 111.833 -53.5 190.5c0 69.333 16.667 161 50 275l44 151l-77 -4l32 157l95 4l94 312l268 55l-102 -348l139 8l-33 -154l-155 -12
l-67 -224c-22.667 -78 -34 -140 -34 -186c0 -31.333 7.83301 -56.833 23.5 -76.5s35.834 -29.5 60.501 -29.5c34 0 67.667 10.833 101 32.5s82.333 66.834 147 135.501v-115z" />
    <glyph glyph-name="u" unicode="u" 
d="M1090 221c-88 -83.333 -161.667 -144.833 -221 -184.5s-112.666 -59.5 -159.999 -59.5c-52.667 0 -93.167 21 -121.5 63s-42.5 99 -42.5 171c-73.333 -80.667 -139 -140.167 -197 -178.5s-114.667 -57.5 -170 -57.5c-50.667 0 -91.334 21 -122.001 63s-46 99 -46 171
c0 138.667 46.667 334 140 586l266 53c-109.333 -319.333 -164 -524.333 -164 -615c0 -64 24 -96 72 -96c34.667 0 77.667 28.167 129 84.5s83.333 105.5 96 147.5l131 426l272 55c-62.667 -200.667 -105.667 -341.667 -129 -423s-35 -138.333 -35 -171
c0 -62.667 21.333 -94 64 -94c34.667 0 86 31.667 154 95l84 79v-115z" />
    <glyph glyph-name="v" unicode="v" horiz-adv-x="897" 
d="M920 221c-30.667 -26.667 -61.667 -45.668 -93 -57.001s-55.666 -17 -72.999 -17c-48.667 0 -96.667 18.667 -144 56c-118.667 -150.667 -244.334 -226 -377.001 -226c-69.333 0 -123.5 23.833 -162.5 71.5s-58.5 114.167 -58.5 199.5c0 94 23.333 209.333 70 346l70 205
l272 51l-121 -361c-12.667 -39.333 -24.667 -86 -36 -140s-17 -92.667 -17 -116c0 -36 9.5 -66.167 28.5 -90.5s42.167 -36.5 69.5 -36.5c64 0 133 54.667 207 164c-34 68 -51 136.333 -51 205c0 95.333 25.167 181.333 75.5 258s105.5 115 165.5 115
c45.333 0 68 -35 68 -105c0 -135.333 -54.667 -291.666 -164 -468.999c34 -31.333 69.667 -47 107 -47c45.333 0 100 36.333 164 109v-115z" />
    <glyph glyph-name="w" unicode="w" horiz-adv-x="1386" 
d="M1409 221c-32 -26.667 -63.9961 -45.6699 -95.9961 -57.0029s-56.667 -17 -74 -17c-48.667 0 -96.334 18.667 -143.001 56c-121.333 -150.667 -246.333 -226 -375 -226c-94.667 0 -162.334 52 -203.001 156c-89.333 -104 -185.666 -156 -288.999 -156
c-67.333 0 -120.333 22.167 -159 66.5s-58 105.5 -58 183.5c0 84 11.833 169.333 35.5 256s59.834 192.667 108.501 318l264 49l-74 -223c-62.667 -193.333 -94 -326.666 -94 -399.999c0 -34.667 8.33301 -63 25 -85s37.667 -33 63 -33c53.333 0 106.666 41.333 159.999 124
c0 104.667 19 213.334 57 326.001l82 242l268 49l-112 -346c-36 -111.333 -54 -199.333 -54 -264c0 -39.333 8.66699 -70.666 26 -93.999s40.333 -35 69 -35c35.333 0 68.666 13 99.999 39s66.666 65.333 105.999 118c-35.333 64.667 -53 131.667 -53 201
c0 100 25 188.5 75 265.5s106.333 115.5 169 115.5c43.333 0 65 -32.667 65 -98c0 -140.667 -54.333 -300 -163 -478c33.333 -31.333 68.666 -47 105.999 -47c44.667 0 100.667 36.333 168 109v-115z" />
    <glyph glyph-name="x" unicode="x" horiz-adv-x="1153" 
d="M1176 221c-166 -164 -310.999 -245.998 -434.999 -245.998c-117.333 0 -194.333 67.667 -231 203c-66.667 -135.333 -156.667 -203 -270 -203c-46 0 -88 12.667 -126 38s-57 52.333 -57 81c0 13.333 19.333 36.5 58 69.5s61.667 49.5 69 49.5c10.667 0 21 -14.333 31 -43
c22 -60 53.333 -90 94 -90c44 0 83.167 33.5 117.5 100.5s61 150.167 80 249.5s28.5 160.666 28.5 183.999c0 71.333 -26 107 -78 107c-65.333 0 -152 -91.667 -260 -275c-57.333 -97.333 -115.333 -172.333 -174 -225h-23v90c35.333 34.667 74.333 86 117 154
c82.667 133.333 157.5 230.5 224.5 291.5s134.167 91.5 201.5 91.5c111.333 0 178 -65 200 -195c33.333 67.333 68.166 116.666 104.499 147.999s80.166 47 131.499 47c50.667 0 89 -15.5 115 -46.5s39 -60.5 39 -88.5c0 -9.33301 -18.667 -31.833 -56 -67.5
s-63.333 -53.5 -78 -53.5c-9.33301 0 -14.333 12.167 -15 36.5s-7.5 47.833 -20.5 70.5s-29.833 34 -50.5 34c-52 0 -97.333 -68.833 -136 -206.5s-58 -242.167 -58 -313.5c0 -38 9.66699 -68.667 29 -92s44.333 -35 75 -35c88.667 0 206.334 83.333 353.001 250v-115z" />
    <glyph glyph-name="y" unicode="y" 
d="M1090 221c-84.667 -82 -219.999 -166 -405.999 -252c-62 -176 -131.667 -300.5 -209 -373.5s-158 -109.5 -242 -109.5c-42.667 0 -76.834 13 -102.501 39s-38.5 60.667 -38.5 104c0 131.333 120.333 250.333 361 357l61 215c-126 -140.667 -236.667 -211 -332 -211
c-51.333 0 -92.833 21 -124.5 63s-47.5 98 -47.5 168c0 100.667 22 208.667 66 324l96 254l291 51l-125 -297c-57.333 -143.333 -86 -251.333 -86 -324c0 -60 20.333 -90 61 -90c41.333 0 88.5 33.333 141.5 100s97.5 148.667 133.5 246l114 314l273 51l-260 -782
c152.667 70 277.667 159.333 375 268v-115zM424.001 -113c-82 -36.667 -145.167 -77.833 -189.5 -123.5s-66.5 -90.5 -66.5 -134.5c0 -44.667 19 -67 57 -67c74 0 140.333 108.333 199 325z" />
    <glyph glyph-name="z" unicode="z" horiz-adv-x="981" 
d="M1004 221c-90.667 -100 -158.835 -166 -204.502 -198s-90.834 -48 -135.501 -48c-25.333 0 -71.833 11 -139.5 33s-118.834 33 -153.501 33c-43.333 0 -74.833 -11 -94.5 -33s-32.5 -33 -38.5 -33c-33.333 0 -53.333 0.5 -60 1.5s-10 3.5 -10 7.5
c0 14.667 57 91.667 171 231l345 420c-38.667 -8 -80.334 -12 -125.001 -12c-60 0 -122 10 -186 30c-120 -172 -236.667 -316 -350 -432h-23v90c84.667 86.667 166.167 183.834 244.5 291.501s123.833 175.5 136.5 203.5s23 42 31 42c4.66699 0 35.334 -4.5 92.001 -13.5
s102.334 -13.5 137.001 -13.5c62.667 0 120.167 4.5 172.5 13.5s82.833 13.5 91.5 13.5c12.667 0 19 -3.33301 19 -10c0 -24.667 -53.667 -101.334 -161 -230.001l-323 -391c26.667 2.66699 48.667 4 66 4c12.667 0 55.834 -7.5 129.501 -22.5s117.834 -22.5 132.501 -22.5
c41.333 0 76.833 11.167 106.5 33.5s72.834 64.5 129.501 126.5v-115z" />
    <glyph glyph-name="braceleft" unicode="{" horiz-adv-x="807" 
d="M717 -416c-130.667 -0.666992 -231.999 31.667 -303.999 97s-108 140.333 -108 225c0 39.333 8.83301 94.5 26.5 165.5s26.5 128.5 26.5 172.5c0 118.667 -64.667 189 -194 211v59c129.333 23.333 194 96.333 194 219c0 49.333 -8.5 107.666 -25.5 174.999
s-25.5 118.333 -25.5 153c0 78.667 34.833 151.834 104.5 219.501s171.5 102.167 305.5 103.5v-45c-130 -27.333 -195 -90 -195 -188c0 -37.333 8.16699 -90 24.5 -158s24.5 -127.333 24.5 -178c0 -66 -25.333 -130.167 -76 -192.5s-134.334 -108.166 -251.001 -137.499
c126 -36 212.333 -85 259 -147s70 -123.333 70 -184c0 -42.667 -8.16699 -96.834 -24.5 -162.501s-24.5 -120.167 -24.5 -163.5c0 -106.667 64.333 -173 193 -199v-45z" />
    <glyph glyph-name="bar" unicode="|" horiz-adv-x="1118" 
d="M639 -512h-160v2048h160v-2048z" />
    <glyph glyph-name="braceright" unicode="}" horiz-adv-x="807" 
d="M643 453c-129.333 -23.333 -194.002 -95.6641 -194.002 -216.997c0 -40.667 6.66699 -90.667 20 -150c20.667 -78 31 -137.333 31 -178c0 -78.667 -35 -151.834 -105 -219.501s-171.667 -102.5 -305 -104.5v45c130 25.333 195 88.333 195 189
c0 35.333 -8.16699 87.5 -24.5 156.5s-24.5 128.833 -24.5 179.5c0 66.667 25.833 131 77.5 193s134.834 106.667 249.501 134c-119.333 34.667 -204.166 83 -254.499 145s-75.5 124.333 -75.5 187c0 32.667 8.33301 84.667 25 156s25 128.666 25 171.999
c0 106.667 -64.333 172.667 -193 198v45c130.667 1.33301 232 -30.834 304 -96.501s108 -140.5 108 -224.5c0 -47.333 -8.83301 -104.333 -26.5 -171s-26.5 -123 -26.5 -169c0 -117.333 64.667 -187 194 -209v-61z" />
    <glyph glyph-name="asciitilde" unicode="~" horiz-adv-x="1366" 
d="M1227 829c-4 -101.333 -30.5 -180.499 -79.5 -237.499s-112.167 -85.5 -189.5 -85.5c-39.333 0 -79.833 6.66699 -121.5 20s-118.834 43.333 -231.501 90s-190 70 -232 70c-99.333 0 -158 -59.333 -176 -178h-58c2.66699 112.667 29.834 194.667 81.501 246
s111.167 77 178.5 77c32.667 0 74 -6.83301 124 -20.5s135.667 -46.834 257 -99.501c98.667 -42.667 169.667 -64 213 -64c103.333 0 162 60.667 176 182h58z" />
    <glyph glyph-name="nonbreakingspace" unicode="&#xa0;" horiz-adv-x="512" 
 />
    <glyph glyph-name="exclamdown" unicode="&#xa1;" horiz-adv-x="662" 
d="M272 1192c37.333 106.667 68.6689 172.166 94.002 196.499s57.666 36.5 96.999 36.5c38.667 0 77.667 -9.5 117 -28.5s59 -31.833 59 -38.5c0 -5.33301 -4 -12.333 -12 -21c-36.667 -56.667 -65.334 -127 -86.001 -211c-55.333 56 -111.333 84 -168 84
c-24 0 -44.833 -3.66699 -62.5 -11s-30.5 -9.66602 -38.5 -6.99902zM373.003 1018c42 -55.333 63.001 -123.001 63.001 -203.001c0 -57.333 -23.833 -147.5 -71.5 -270.5s-71.5 -221.833 -71.5 -296.5c0 -52.667 3.33301 -91.167 10 -115.5s10 -39.166 10 -44.499
c0 -11.333 -6.66699 -21 -20 -29s-47.833 -23.667 -103.5 -47s-88.834 -35 -99.501 -35c-12 0 -23.5 20 -34.5 60s-16.5 83.667 -16.5 131c0 130 51.333 275.333 154 436c66.667 104 108.167 175.667 124.5 215s24.5 73 24.5 101c0 16 -1.33301 41.667 -4 77z" />
    <glyph glyph-name="cent" unicode="&#xa2;" horiz-adv-x="748" 
d="M766 221c-143.333 -163.333 -289.332 -245.002 -437.999 -245.002c-16.667 0 -36.667 1.33301 -60 4l-121 -435h-47l125 447c-133.333 46.667 -200 144.334 -200 293.001c0 123.333 41.833 240.833 125.5 352.5s188.5 181.834 314.5 210.501l143 510h47l-141 -504
c134 -11.333 201 -72.666 201 -183.999c0 -21.333 -5.83301 -37.333 -17.5 -48s-41.667 -27.167 -90 -49.5s-77.5 -33.5 -87.5 -33.5c-9.33301 0 -14 5.33301 -14 16c0 5.33301 2.33301 23.666 7 54.999s7 50 7 56c0 34.667 -11 62.667 -33 84l-157 -553
c39.333 -36 83.666 -54 132.999 -54c98.667 0 195.667 54.667 291 164h12v-86zM442.001 761.998c-58.667 -12.667 -105 -55.167 -139 -127.5s-51 -144.5 -51 -216.5c0 -74.667 13.667 -134 41 -178z" />
    <glyph glyph-name="sterling" unicode="&#xa3;" horiz-adv-x="1300" 
d="M457 797c36.667 218.667 101.499 378 194.499 478s215.167 150 366.5 150c95.333 0 163.5 -18.167 204.5 -54.5s61.5 -70.5 61.5 -102.5c0 -23.333 -24.5 -51.666 -73.5 -84.999s-81.833 -50 -98.5 -50c-18 0 -29 21.667 -33 65c-5.33301 64 -16.833 105 -34.5 123
s-40.834 27 -69.501 27c-50.667 0 -92.167 -26.5 -124.5 -79.5s-57.833 -138.5 -76.5 -256.5l-35 -226c15.333 -4 38 -6 68 -6c66.667 0 116.5 5.66699 149.5 17s56.167 23.666 69.5 36.999s23 20 29 20c16 0 24 -6.66699 24 -20c0 -17.333 -12.833 -52.5 -38.5 -105.5
s-48.167 -84.667 -67.5 -95s-46 -15.5 -80 -15.5h-188c-30 -116 -89 -233.333 -177 -352c12.667 0 72.834 -10.5 180.501 -31.5s173.167 -31.5 196.5 -31.5c99.333 0 172.333 41.667 219 125h21l47 -19c-88 -222.667 -219 -334 -393 -334c-64 0 -143.333 23.333 -238 70
c-72 34.667 -128.667 55 -170 61c-82.667 -87.333 -164.667 -131 -246 -131c-33.333 0 -60.666 8.83301 -81.999 26.5s-32 40.5 -32 68.5c0 46.667 25 88.167 75 124.5s130.667 59.5 242 69.5c38 98.667 64.667 223 80 373c-64.667 0 -112.167 -3.33301 -142.5 -10
s-56.5 -24 -78.5 -52c-9.33301 -10.667 -19 -16 -29 -16c-13.333 0 -20 7 -20 21c0 20.667 12.5 57.5 37.5 110.5s52.833 84 83.5 93s90 13.5 178 13.5z" />
    <glyph glyph-name="currency" unicode="&#xa4;" horiz-adv-x="1409" 
d="M1184 274l-107.001 -105.999l-127 127c-84 -57.333 -172 -86 -264 -86c-93.333 0 -182.666 28.667 -267.999 86l-127 -127l-107 106l127 127c-56 80.667 -84 169.667 -84 267c0 95.333 28 184 84 266l-127 127l105 106l129 -129c85.333 57.333 174 86 266 86
s180.667 -28.667 266 -86l127 129l107 -106l-129 -129c57.333 -82.667 86 -171.334 86 -266.001c0 -94 -28.667 -182.333 -86 -265zM683.999 358.001c84.667 0 157 30.5 217 91.5s90 133.833 90 218.5c0 83.333 -30.167 155.333 -90.5 216s-132.5 91 -216.5 91
s-156.167 -30.333 -216.5 -91s-90.5 -132.667 -90.5 -216c0 -84.667 30 -157.5 90 -218.5s132.333 -91.5 217 -91.5z" />
    <glyph glyph-name="yen" unicode="&#xa5;" horiz-adv-x="1393" 
d="M1368 1415c-228.667 -120.667 -398.001 -323.999 -508.001 -609.999h252l-2 -74h-274l-25 -80h274v-73h-294l-146 -551l-246 -50l183 601h-248v73h266l23 80h-263v74h273c7.33301 38 11 86 11 144c0 124 -17.333 223.5 -52 298.5s-84.667 112.5 -150 112.5
c-64.667 0 -121.667 -24.333 -171 -73s-74 -99.334 -74 -152.001c0 -63.333 22.333 -114.666 67 -153.999c16.667 -14.667 25 -26.334 25 -35.001c0 -18 -14 -41.667 -42 -71s-55.667 -44 -83 -44c-26.667 0 -49 18.5 -67 55.5s-27 80.167 -27 129.5
c0 101.333 39.5 196 118.5 284s164.833 132 257.5 132s166.167 -42.667 220.5 -128s81.5 -204.333 81.5 -357c0 -24 -1 -49 -3 -75c98.667 244 250.334 425 455.001 543h168z" />
    <glyph glyph-name="brokenbar" unicode="&#xa6;" horiz-adv-x="1118" 
d="M639 666h-160v716h160v-716zM639 -358h-160v716h160v-716z" />
    <glyph glyph-name="section" unicode="&#xa7;" 
d="M449 852c-54.667 78.667 -82.001 155.666 -82.001 230.999c0 98.667 33.667 180.334 101 245.001s152.333 97 255 97c83.333 0 160.5 -19.167 231.5 -57.5s106.5 -67.5 106.5 -87.5c0 -14 -10.5 -48.167 -31.5 -102.5s-35.167 -87 -42.5 -98s-17 -16.5 -29 -16.5
c-12.667 0 -24 3.5 -34 10.5s-15 15.167 -15 24.5l15 102c0 48 -17.667 86.667 -53 116s-82.666 44 -141.999 44c-54 0 -99.167 -15.333 -135.5 -46s-54.5 -68 -54.5 -112c0 -70 60 -167 180 -291c143.333 -149.333 215 -287.666 215 -414.999
c0 -138.667 -94.333 -260.334 -283 -365.001c57.333 -70 86 -149 86 -237c0 -100 -34.167 -183.5 -102.5 -250.5s-153.5 -100.5 -255.5 -100.5c-77.333 0 -154.666 19.833 -231.999 59.5s-116 73.834 -116 102.501c0 13.333 12 53.166 36 119.499s44.667 99.5 62 99.5
c13.333 0 25.833 -3.66699 37.5 -11s17.5 -15.333 17.5 -24l-7 -43c-4.66699 -33.333 -7 -54.333 -7 -63c0 -48 19.833 -88.333 59.5 -121s89.5 -49 149.5 -49c55.333 0 101.166 15 137.499 45s54.5 67.667 54.5 113c0 64.667 -48.5 148.667 -145.5 252
s-164.167 188 -201.5 254s-56 131.333 -56 196c0 71.333 22.667 136.5 68 195.5s116.333 120.167 213 183.5zM611.999 185.999c98.667 52.667 147.999 118.334 147.999 197.001c0 33.333 -10.333 69.5 -31 108.5s-100.667 137.833 -240 296.5
c-46 -26 -82 -56.833 -108 -92.5s-39 -70.834 -39 -105.501c0 -38 14.833 -78.5 44.5 -121.5s104.834 -137.167 225.501 -282.5z" />
    <glyph glyph-name="dieresis" unicode="&#xa8;" horiz-adv-x="682" 
d="M817 1182c-8.66699 -108 -50.334 -162 -125.001 -162c-36 0 -87 20.333 -153 61c42.667 69.333 73.334 131 92.001 185c72.667 -45.333 134.667 -73.333 186 -84zM459 1186c-12.667 -109.333 -57.001 -164 -133.001 -164c-42 0 -90 20.333 -144 61
c40 64.667 68.667 125.667 86 183c80.667 -50 144.334 -76.667 191.001 -80z" />
    <glyph glyph-name="copyright" unicode="&#xa9;" horiz-adv-x="1530" 
d="M764 1417c195.333 0 362.666 -69.333 501.999 -208s209 -305.334 209 -500.001c0 -195.333 -69.667 -362.333 -209 -501s-306.666 -208 -501.999 -208c-194.667 0 -361.5 69.5 -500.5 208.5s-208.5 305.833 -208.5 500.5s69.5 361.334 208.5 500.001
s305.833 208 500.5 208zM764 88c170.667 0 316.667 60.833 438 182.5s182 267.834 182 438.501c0 170 -60.667 315.833 -182 437.5s-267.333 182.5 -438 182.5c-170 0 -315.667 -60.833 -437 -182.5s-182 -267.5 -182 -437.5c0 -170.667 60.667 -316.834 182 -438.501
s267 -182.5 437 -182.5zM1100 872h-39c-13.333 68 -42 120.833 -86 158.5s-97.333 56.5 -160 56.5c-81.333 0 -144.666 -31.5 -189.999 -94.5s-68 -152.167 -68 -267.5c0 -142.667 25.833 -240.834 77.5 -294.501s110.5 -80.5 176.5 -80.5c99.333 0 186 46.333 260 139v-71
c-80.667 -84.667 -186.334 -127 -317.001 -127c-124 0 -225.333 38 -304 114s-118 173.667 -118 293c0 126.667 41.667 231.834 125 315.501s188.333 125.5 315 125.5c58 0 110.667 -9 158 -27s76 -27 86 -27c26 0 41 17.333 45 52h39v-265z" />
    <glyph glyph-name="ordfeminine" unicode="&#xaa;" horiz-adv-x="725" 
d="M850 997c-109.333 -112 -190.666 -167.999 -243.999 -167.999c-32 0 -57 14 -75 42s-27 78.333 -27 151c-46 -66 -88.167 -114.667 -126.5 -146s-77.5 -47 -117.5 -47s-74.167 19.333 -102.5 58s-42.5 85.667 -42.5 141c0 98.667 40.5 189.5 121.5 272.5
s157.833 124.5 230.5 124.5c62.667 0 103.667 -25.667 123 -77l139 77h39c-69.333 -210.667 -104 -347 -104 -409c0 -38.667 13.667 -58 41 -58c20.667 0 44.667 13.667 72 41s51.666 50.666 72.999 69.999v-72zM352 958.001c46 0 89.334 39 130.001 117s61 148.333 61 211
c0 25.333 -6 46 -18 62s-27.333 24 -46 24c-46.667 0 -90 -39 -130 -117s-60 -148.333 -60 -211c0 -24 6.16699 -44.333 18.5 -61s27.166 -25 44.499 -25z" />
    <glyph glyph-name="guillemotleft" unicode="&#xab;" horiz-adv-x="897" 
d="M717 903c42.667 -10.667 80.668 -28.499 114.001 -53.499s50 -39.833 50 -44.5c0 -9.33301 -43.333 -61.666 -130 -156.999s-130 -156.333 -130 -183c0 -25.333 17.333 -85.333 52 -180s52 -143.334 52 -146.001c0 -10.667 -26.333 -26 -79 -46s-82.334 -30 -89.001 -30
c-5.33301 0 -12 13 -20 39l-117 359c-2.66699 13.333 -4 22.666 -4 27.999c0 22 34.667 79.5 104 172.5s135 173.5 197 241.5zM348.001 903.001c11.333 0 40.5 -13.665 87.5 -40.998s70.5 -45.666 70.5 -54.999c0 -6 -9.33301 -20.833 -28 -44.5
s-43.5 -49.834 -74.5 -78.501s-64.667 -68.334 -101 -119.001s-54.5 -85.334 -54.5 -104.001c0 -22.667 17 -81.167 51 -175.5s51 -143.833 51 -148.5c0 -12 -25.333 -26.833 -76 -44.5s-80.667 -26.5 -90 -26.5c-8 0 -33.833 68.333 -77.5 205s-65.5 211 -65.5 223
c0 22.667 49.5 96.5 148.5 221.5s151.833 187.5 158.5 187.5z" />
    <glyph glyph-name="logicalnot" unicode="&#xac;" horiz-adv-x="1366" 
d="M1231 229h-158v488h-938v157h1096v-645z" />
    <glyph glyph-name="sfthyphen" unicode="&#xad;" horiz-adv-x="670" 
d="M626 537l-46.998 -108.999c-23.333 -54.667 -42.333 -87.834 -57 -99.501s-43.334 -17.5 -86.001 -17.5l-221 8c-30.667 0 -57.334 -8.66699 -80.001 -26c-10 -6.66699 -18.333 -10 -25 -10c-20 0 -26.667 7.33301 -20 22l55 129c14 33.333 28.667 55 44 65
s49.333 15.333 102 16h165c60 0 98 6.66699 114 20s27.333 20 34 20c20 0 27.333 -6 22 -18z" />
    <glyph glyph-name="registered" unicode="&#xae;" horiz-adv-x="1530" 
d="M766 1417c194.667 0 361.5 -69.333 500.5 -208s208.5 -305.334 208.5 -500.001s-69.5 -361.5 -208.5 -500.5s-305.833 -208.5 -500.5 -208.5c-195.333 0 -362.666 69.333 -501.999 208s-209 305.667 -209 501c0 194.667 69.667 361.334 209 500.001
s306.666 208 501.999 208zM766 88c170 0 315.5 60.833 436.5 182.5s181.5 267.834 181.5 438.501c0 170 -60.5 315.833 -181.5 437.5s-266.5 182.5 -436.5 182.5c-170.667 0 -316.834 -60.833 -438.501 -182.5s-182.5 -267.5 -182.5 -437.5
c0 -170.667 60.833 -316.834 182.5 -438.501s267.834 -182.5 438.501 -182.5zM1165 311l-240.999 0.00195312l-205 369h-47v-199c0 -65.333 9.5 -104 28.5 -116s49.833 -18.333 92.5 -19v-35h-424v35c40.667 -1.33301 68.5 7 83.5 25s22.5 54.667 22.5 110v473
c0 59.333 -6.83301 95.666 -20.5 108.999s-36.834 20.666 -69.501 21.999v35h363c91.333 0 159 -6.66699 203 -20s80.167 -38.333 108.5 -75s42.5 -78 42.5 -124c0 -102.667 -59.333 -171.667 -178 -207l137 -250c31.333 -59.333 66 -92 104 -98v-35zM672.001 731.002
c14.667 -2.66699 33 -4 55 -4c46.667 0 85 16.667 115 50s45 76 45 128s-13.333 93.667 -40 125s-85 47 -175 47v-346z" />
    <glyph glyph-name="overscore" unicode="&#xaf;" horiz-adv-x="1024" 
d="M1520 1590h-1060v102h1060v-102z" />
    <glyph glyph-name="degree" unicode="&#xb0;" horiz-adv-x="819" 
d="M530 1384c95.333 0 177 -34 245 -102s102 -149.333 102 -244s-34 -176 -102 -244s-149.667 -102 -245 -102s-176.833 34 -244.5 102s-101.5 149.333 -101.5 244c0 95.333 33.833 176.833 101.5 244.5s149.167 101.5 244.5 101.5zM530 825c59.333 0 110 21.001 152 63.001
s63 92 63 150c0 59.333 -21 110 -63 152s-92.667 63 -152 63c-58.667 0 -109.167 -21 -151.5 -63s-63.5 -92.667 -63.5 -152c0 -58.667 21 -108.834 63 -150.501s92.667 -62.5 152 -62.5z" />
    <glyph glyph-name="plusminus" unicode="&#xb1;" horiz-adv-x="1366" 
d="M1231 758h-471v-467h-158v467h-467v157h467v471h158v-471h471v-157zM1231 -49h-1096v158h1096v-158z" />
    <glyph glyph-name="twosuperior" unicode="&#xb2;" horiz-adv-x="662" 
d="M559 776c-18 -65.333 -38.166 -114.001 -60.499 -146.001s-63.5 -48 -123.5 -48c-26 0 -62.5 2 -109.5 6s-82.167 6 -105.5 6c-22.667 0 -59.667 -4 -111 -12c-5.33301 0 -8 4.66699 -8 14c0 72.667 65 166.334 195 281.001c79.333 70.667 136 132.5 170 185.5
s51 109.167 51 168.5c0 39.333 -10.5 71.333 -31.5 96s-48.167 37 -81.5 37s-61.833 -11.667 -85.5 -35s-35.5 -51.333 -35.5 -84c0 -26 9.66699 -46.333 29 -61s29 -26.334 29 -35.001c0 -10.667 -14.667 -22.834 -44 -36.501s-52.333 -20.5 -69 -20.5
c-14 0 -26.333 6.83301 -37 20.5s-16 29.834 -16 48.501c0 66 30.833 126.167 92.5 180.5s130.5 81.5 206.5 81.5c61.333 0 112.166 -18.5 152.499 -55.5s60.5 -83.833 60.5 -140.5c0 -47.333 -16.333 -95 -49 -143s-107.167 -111.167 -223.5 -189.5
s-190.166 -140.166 -221.499 -185.499c46 12 89.667 18 131 18c15.333 0 41.666 -1.66699 78.999 -5s64.333 -5 81 -5c36 0 60 5.66699 72 17s22.667 29.333 32 54z" />
    <glyph glyph-name="threesuperior" unicode="&#xb3;" horiz-adv-x="662" 
d="M635 1241c0 -90.667 -68.3359 -159.003 -205.003 -205.003c55.333 -25.333 95.833 -53.5 121.5 -84.5s38.5 -70.167 38.5 -117.5c0 -75.333 -30.167 -136.833 -90.5 -184.5s-138.833 -71.5 -235.5 -71.5c-68.667 0 -122.667 14.333 -162 43s-59 68 -59 118
c0 28.667 8 47.5 24 56.5s36.5 16.833 61.5 23.5s40.167 10 45.5 10c10.667 0 16 -7.33301 16 -22c0 -8 -3.66699 -20.5 -11 -37.5s-11 -35.833 -11 -56.5c0 -26.667 10.333 -49.167 31 -67.5s46.334 -27.5 77.001 -27.5c49.333 0 87.333 23.667 114 71
s40 97.666 40 150.999c0 42 -9.66699 76.333 -29 103s-43.666 40 -72.999 40l-43 -4c-11.333 0 -17 6.66699 -17 20c0 22.667 3.16699 36.334 9.5 41.001s21.833 7 46.5 7c48.667 0 88.334 18.833 119.001 56.5s46 84.834 46 141.501c0 39.333 -10.667 70.666 -32 93.999
s-50 35 -86 35c-30 0 -56.333 -9.66699 -79 -29s-34 -41.666 -34 -66.999c0 -2.66699 3 -12.667 9 -30s9 -27.666 9 -30.999c0 -11.333 -13.167 -24.166 -39.5 -38.499s-45.833 -21.5 -58.5 -21.5c-8 0 -15.167 5.66699 -21.5 17s-9.5 24 -9.5 38
c0 54.667 27.5 103.5 82.5 146.5s118.5 64.5 190.5 64.5c64 0 115.833 -16.833 155.5 -50.5s59.5 -77.5 59.5 -131.5z" />
    <glyph glyph-name="acute" unicode="&#xb4;" horiz-adv-x="682" 
d="M803 1329c-18 -72.667 -55.167 -136.667 -111.5 -192s-143.5 -115.666 -261.5 -180.999l-61 21c99.333 115.333 167.333 224.666 204 327.999z" />
    <glyph glyph-name="mu" unicode="&#xb5;" horiz-adv-x="1180" 
d="M1087 903l-179.997 -616.001c-22 -76.667 -33 -124 -33 -142c0 -14.667 5.33301 -27.834 16 -39.501s22.667 -17.5 36 -17.5c36.667 0 74 47 112 141l37 -20c-54.667 -156 -143.334 -234 -266.001 -234c-50 0 -90.167 15.5 -120.5 46.5s-45.5 71.5 -45.5 121.5
c0 24.667 2 53.334 6 86.001c-69.333 -96.667 -129.333 -163.167 -180 -199.5s-105.334 -54.5 -164.001 -54.5c-68 0 -119 29.333 -153 88c-27.333 -80.667 -43.5 -169.167 -48.5 -265.5s-18.5 -159.666 -40.5 -189.999s-52 -45.5 -90 -45.5
c-27.333 0 -50.5 10.167 -69.5 30.5s-28.5 45.5 -28.5 75.5c0 40.667 25.333 103.167 76 187.5s83.5 144.5 98.5 180.5s36.167 100.333 63.5 193l194 674h256l-162 -557c-21.333 -69.333 -32 -119.666 -32 -150.999c0 -20.667 6.66699 -37.834 20 -51.501
s29.666 -20.5 48.999 -20.5c46.667 0 96 32.833 148 98.5s98.333 168.5 139 308.5l109 373h253z" />
    <glyph glyph-name="paragraph" unicode="&#xb6;" horiz-adv-x="1106" 
d="M1106 1313c-60.667 0 -104 -5.99805 -130 -17.998s-42.167 -31.167 -48.5 -57.5s-9.5 -69.5 -9.5 -129.5v-1550h-99v1722h-182v-1722h-100v872c-188 3.33301 -324.5 49.166 -409.5 137.499s-127.5 198.166 -127.5 329.499c0 108 25 198 75 270s110.5 121.5 181.5 148.5
s208.167 40.5 411.5 40.5h438v-43z" />
    <glyph glyph-name="periodcentered" unicode="&#xb7;" horiz-adv-x="406" 
d="M383 782c-29.333 -94.667 -56.498 -156.833 -81.498 -186.5s-62.167 -44.5 -111.5 -44.5c-57.333 0 -115.333 21 -174 63c34 50.667 67.667 128.667 101 234c42.667 -35.333 74.167 -57.833 94.5 -67.5s44.166 -14.5 71.499 -14.5c23.333 0 56.666 5.33301 99.999 16z
" />
    <glyph glyph-name="periodcentered" unicode="&#x2219;" horiz-adv-x="406" 
d="M383 782c-29.333 -94.667 -56.498 -156.833 -81.498 -186.5s-62.167 -44.5 -111.5 -44.5c-57.333 0 -115.333 21 -174 63c34 50.667 67.667 128.667 101 234c42.667 -35.333 74.167 -57.833 94.5 -67.5s44.166 -14.5 71.499 -14.5c23.333 0 56.666 5.33301 99.999 16z
" />
    <glyph glyph-name="cedilla" unicode="&#xb8;" horiz-adv-x="682" 
d="M381 -68c88.667 -16 132.999 -65.001 132.999 -147.001c0 -36 -10.333 -68.5 -31 -97.5s-53.5 -55.5 -98.5 -79.5s-90.167 -39 -135.5 -45s-101.666 -9 -168.999 -9l14 79c139.333 0 209 40.333 209 121c0 58.667 -36 89.334 -108 92.001
c50.667 48.667 99.667 102.667 147 162h102z" />
    <glyph glyph-name="onesuperior" unicode="&#xb9;" horiz-adv-x="694" 
d="M268 1137c-21.333 10 -31.9971 15.332 -31.9971 15.999c0 14.667 16.5 41.834 49.5 81.501s69.833 77.167 110.5 112.5s70.167 56.833 88.5 64.5s45.833 11.5 82.5 11.5c18 0 27 -4.66699 27 -14c0 -7.33301 -2 -19 -6 -35l-131 -506
c-42.667 -166.667 -72.834 -257.167 -90.501 -271.5s-64.834 -21.5 -141.501 -21.5c-16 0 -24 3.66699 -24 11c0 4.66699 1.66699 12 5 22l124 375l90 324c-40.667 -20 -91.334 -76.667 -152.001 -170z" />
    <glyph glyph-name="ordmasculine" unicode="&#xba;" horiz-adv-x="618" 
d="M735 997c-32 -36.667 -68.665 -55.001 -109.998 -55.001c-30 0 -65 11.667 -105 35c-67.333 -98.667 -142.333 -148 -225 -148c-54 0 -97.167 19.667 -129.5 59s-48.5 92.333 -48.5 159c0 102.667 36.167 191.334 108.5 266.001s158.166 112 257.499 112
c58.667 0 95.167 -7.5 109.5 -22.5s21.5 -37.5 21.5 -67.5c0 -94.667 -23.667 -197.667 -71 -309c26 -22 52.667 -33 80 -33c41.333 0 78.666 26 111.999 78v-74zM508.002 1380c-71.333 5.33301 -125 -22.332 -161 -82.999s-54 -136.667 -54 -228
c0 -44.667 7.33301 -79.667 22 -105s34.667 -38 60 -38c34 0 68 29.333 102 88c-40.667 61.333 -61 119.333 -61 174c0 39.333 7.16699 73.166 21.5 101.499s37.833 58.5 70.5 90.5z" />
    <glyph glyph-name="guillemotright" unicode="&#xbb;" horiz-adv-x="897" 
d="M737 903c13.333 0 41.332 -65.8311 83.999 -197.498s64 -211.834 64 -240.501c0 -23.333 -43.167 -85.166 -129.5 -185.499s-142.166 -169.5 -167.499 -207.5c-4 -6 -8.33301 -9 -13 -9c-9.33301 0 -38.5 14.333 -87.5 43s-73.5 45.334 -73.5 50.001
c0 5.33301 44.333 57.166 133 155.499s133 162.5 133 192.5c0 31.333 -17.833 90.666 -53.5 177.999s-53.5 138.666 -53.5 153.999c0 4.66699 24.167 17 72.5 37s78.833 30 91.5 30zM361.999 903.002c16 0 44.668 -63.6699 86.001 -191.003s62 -203.666 62 -228.999
c0 -18 -10.333 -43.667 -31 -77s-65.5 -90.166 -134.5 -170.499s-109.5 -129.166 -121.5 -146.499s-20 -26 -24 -26c-13.333 0 -43 15.167 -89 45.5s-69 48.166 -69 53.499c0 6.66699 33.167 47.667 99.5 123s109.666 126.5 129.999 153.5s30.5 50.833 30.5 71.5
c0 18 -7.66699 52.167 -23 102.5s-32.333 96.333 -51 138s-28 69.5 -28 83.5c0 4.66699 23 17.334 69 38.001s77.333 31 94 31z" />
    <glyph glyph-name="onequarter" unicode="&#xbc;" horiz-adv-x="1520" 
d="M276 1137c-21.333 10 -31.9971 15.332 -31.9971 15.999c0 14.667 16.5 41.834 49.5 81.501s69.833 77.167 110.5 112.5s70.167 56.833 88.5 64.5s45.833 11.5 82.5 11.5c18 0 27 -4.66699 27 -14c0 -7.33301 -2 -19 -6 -35l-131 -506
c-42.667 -166.667 -72.834 -257.167 -90.501 -271.5s-64.834 -21.5 -141.501 -21.5c-16 0 -24 3.66699 -24 11c0 4.66699 1.66699 12 5 22l124 375l90 324c-40.667 -20 -91.334 -76.667 -152.001 -170zM1282 1423l-885 -1661h-104l889 1661h100zM1478 93.999
l-10.0049 -37.999c-7.33301 -24.667 -13.666 -40.834 -18.999 -48.501s-16.666 -11.834 -33.999 -12.501l-105 -4l-45 -151c-8 -27.333 -15.667 -46.5 -23 -57.5s-21.166 -18.833 -41.499 -23.5s-53.833 -7 -100.5 -7c-22.667 0 -34 4 -34 12
c0 0.666992 1 3.33398 3 8.00098l80 223l-166 4c-37.333 1.33301 -60.666 2.83301 -69.999 4.5s-14 5.16699 -14 10.5v33c0 12.667 14.667 43 44 91s67.833 102.167 115.5 162.5s99.834 118 156.501 173s98.5 89.5 125.5 103.5s57.167 21 90.5 21c19.333 0 29 -5 29 -15
c0 -23.333 -41 -186.333 -123 -489c52 2 87.667 5.33301 107 10l18 4c10.667 0 16 -4 16 -12v-2zM1296 487c-40.667 -28 -95.333 -82 -164 -162s-126.667 -162.667 -174 -248l215 4c36.667 104.667 77.667 240 123 406z" />
    <glyph glyph-name="onehalf" unicode="&#xbd;" horiz-adv-x="1518" 
d="M276 1137c-21.333 10 -31.9971 15.332 -31.9971 15.999c0 14.667 16.5 41.834 49.5 81.501s69.833 77.167 110.5 112.5s70.167 56.833 88.5 64.5s45.833 11.5 82.5 11.5c18 0 27 -4.66699 27 -14c0 -7.33301 -2 -19 -6 -35l-131 -506
c-42.667 -166.667 -72.834 -257.167 -90.501 -271.5s-64.834 -21.5 -141.501 -21.5c-16 0 -24 3.66699 -24 11c0 4.66699 1.66699 12 5 22l124 375l90 324c-40.667 -20 -91.334 -76.667 -152.001 -170zM1266 1423l-885 -1661h-104l889 1661h100zM1415 -56.001
c-18 -65.333 -38.166 -114.001 -60.499 -146.001s-63.5 -48 -123.5 -48c-26 0 -62.5 2 -109.5 6s-82.167 6 -105.5 6c-22.667 0 -59.667 -4 -111 -12c-5.33301 0 -8 4.66699 -8 14c0 72.667 65 166.334 195 281.001c79.333 70.667 136 132.5 170 185.5s51 109.167 51 168.5
c0 39.333 -10.5 71.333 -31.5 96s-48.167 37 -81.5 37s-61.833 -11.667 -85.5 -35s-35.5 -51.333 -35.5 -84c0 -26 9.66699 -46.333 29 -61s29 -26.334 29 -35.001c0 -10.667 -14.667 -22.834 -44 -36.501s-52.333 -20.5 -69 -20.5c-14 0 -26.333 6.83301 -37 20.5
s-16 29.834 -16 48.501c0 66 30.833 126.167 92.5 180.5s130.5 81.5 206.5 81.5c61.333 0 112.166 -18.5 152.499 -55.5s60.5 -83.833 60.5 -140.5c0 -47.333 -16.333 -95 -49 -143s-107.167 -111.167 -223.5 -189.5s-190.166 -140.166 -221.499 -185.499
c46 12 89.667 18 131 18c15.333 0 41.666 -1.66699 78.999 -5s64.333 -5 81 -5c36 0 60 5.66699 72 17s22.667 29.333 32 54z" />
    <glyph glyph-name="threequarters" unicode="&#xbe;" horiz-adv-x="1495" 
d="M643 1241c0 -90.667 -68.3359 -159.003 -205.003 -205.003c55.333 -25.333 95.833 -53.5 121.5 -84.5s38.5 -70.167 38.5 -117.5c0 -75.333 -30.167 -136.833 -90.5 -184.5s-138.833 -71.5 -235.5 -71.5c-68.667 0 -122.667 14.333 -162 43s-59 68 -59 118
c0 28.667 8 47.5 24 56.5s36.5 16.833 61.5 23.5s40.167 10 45.5 10c10.667 0 16 -7.33301 16 -22c0 -8 -3.66699 -20.5 -11 -37.5s-11 -35.833 -11 -56.5c0 -26.667 10.333 -49.167 31 -67.5s46.334 -27.5 77.001 -27.5c49.333 0 87.333 23.667 114 71
s40 97.666 40 150.999c0 42 -9.66699 76.333 -29 103s-43.666 40 -72.999 40l-43 -4c-11.333 0 -17 6.66699 -17 20c0 22.667 3.16699 36.334 9.5 41.001s21.833 7 46.5 7c48.667 0 88.334 18.833 119.001 56.5s46 84.834 46 141.501c0 39.333 -10.667 70.666 -32 93.999
s-50 35 -86 35c-30 0 -56.333 -9.66699 -79 -29s-34 -41.666 -34 -66.999c0 -2.66699 3 -12.667 9 -30s9 -27.666 9 -30.999c0 -11.333 -13.167 -24.166 -39.5 -38.499s-45.833 -21.5 -58.5 -21.5c-8 0 -15.167 5.66699 -21.5 17s-9.5 24 -9.5 38
c0 54.667 27.5 103.5 82.5 146.5s118.5 64.5 190.5 64.5c64 0 115.833 -16.833 155.5 -50.5s59.5 -77.5 59.5 -131.5zM1294 1423l-885 -1661h-104l889 1661h100zM1450 93.9971l-10.0049 -37.999c-7.33301 -24.667 -13.666 -40.834 -18.999 -48.501
s-16.666 -11.834 -33.999 -12.501l-105 -4l-45 -151c-8 -27.333 -15.667 -46.5 -23 -57.5s-21.166 -18.833 -41.499 -23.5s-53.833 -7 -100.5 -7c-22.667 0 -34 4 -34 12c0 0.666992 1 3.33398 3 8.00098l80 223l-166 4c-37.333 1.33301 -60.666 2.83301 -69.999 4.5
s-14 5.16699 -14 10.5v33c0 12.667 14.667 43 44 91s67.833 102.167 115.5 162.5s99.834 118 156.501 173s98.5 89.5 125.5 103.5s57.167 21 90.5 21c19.333 0 29 -5 29 -15c0 -23.333 -41 -186.333 -123 -489c52 2 87.667 5.33301 107 10l18 4c10.667 0 16 -4 16 -12v-2z
M1267.99 486.998c-40.667 -28 -95.333 -82 -164 -162s-126.667 -162.667 -174 -248l215 4c36.667 104.667 77.667 240 123 406z" />
    <glyph glyph-name="questiondown" unicode="&#xbf;" horiz-adv-x="897" 
d="M477 1192c34.667 97.333 64.998 160.5 90.998 189.5s64.667 43.5 116 43.5c40.667 0 77.834 -9.33301 111.501 -28s50.5 -31.667 50.5 -39c0 -5.33301 -4 -14.333 -12 -27c-31.333 -50 -61 -118.333 -89 -205c-47.333 54.667 -104.666 82 -171.999 82
c-22 0 -41.5 -3.33301 -58.5 -10s-29.5 -8.66699 -37.5 -6zM724.998 520c22.667 0 43.335 -15.8311 62.002 -47.498s28 -67.5 28 -107.5c0 -98.667 -45.833 -188 -137.5 -268s-195.167 -120 -310.5 -120c-96.667 0 -174.834 29.667 -234.501 89s-89.5 137 -89.5 233
c0 178.667 127 344.667 381 498c55.333 33.333 95.166 62.666 119.499 87.999s36.5 51.333 36.5 78c0 2 -0.833008 7.33301 -2.5 16s-2.5 14 -2.5 16c0 12.667 9.66699 19 29 19c13.333 0 25.833 -16.5 37.5 -49.5s17.5 -61.5 17.5 -85.5
c0 -34.667 -10.167 -66.334 -30.5 -95.001s-62.833 -67.667 -127.5 -117s-114.5 -102.5 -149.5 -159.5s-52.5 -120.5 -52.5 -190.5c0 -67.333 16.667 -121.333 50 -162s77.333 -61 132 -61c56 0 101.833 16.833 137.5 50.5s53.5 76.834 53.5 129.501
c0 68 -27.333 105 -82 111c-23.333 2 -35 9 -35 21c0 15.333 23 38.166 69 68.499s79.667 45.5 101 45.5z" />
    <glyph glyph-name="Agrave" unicode="&#xc0;" horiz-adv-x="1386" 
d="M1409 221c-153.333 -164 -293.999 -246.001 -421.999 -246.001c-70.667 0 -126.667 25 -168 75s-64.333 121.333 -69 214c-80.667 -98 -152.167 -170.667 -214.5 -218s-128.833 -71 -199.5 -71c-90.667 0 -163.5 39.167 -218.5 117.5s-82.5 182.833 -82.5 313.5
c0 156 36 316.833 108 482.5s178.667 296.5 320 392.5s312.666 144 513.999 144c150.667 0 287 -20.333 409 -61v-66c-99.333 -116 -182.5 -278.333 -249.5 -487s-100.5 -367.667 -100.5 -477c0 -53.333 10.833 -94.666 32.5 -123.999s51.834 -44 90.501 -44
c69.333 0 152.666 56.667 249.999 170v-115zM1118 1298c-61.333 33.333 -127.334 50 -198.001 50c-111.333 0 -211.666 -46.5 -300.999 -139.5s-159.833 -216.167 -211.5 -369.5s-77.5 -286.333 -77.5 -399c0 -75.333 14.5 -136.5 43.5 -183.5s66.167 -70.5 111.5 -70.5
c78.667 0 169 71.667 271 215c42 376 162.667 675 362 897zM909 1553l-47 -26.999c-154 91.333 -266 208 -336 350l231 39c17.333 -114.667 68 -235.334 152 -362.001z" />
    <glyph glyph-name="Aacute" unicode="&#xc1;" horiz-adv-x="1386" 
d="M1409 221c-153.333 -164 -293.999 -246.001 -421.999 -246.001c-70.667 0 -126.667 25 -168 75s-64.333 121.333 -69 214c-80.667 -98 -152.167 -170.667 -214.5 -218s-128.833 -71 -199.5 -71c-90.667 0 -163.5 39.167 -218.5 117.5s-82.5 182.833 -82.5 313.5
c0 156 36 316.833 108 482.5s178.667 296.5 320 392.5s312.666 144 513.999 144c150.667 0 287 -20.333 409 -61v-66c-99.333 -116 -182.5 -278.333 -249.5 -487s-100.5 -367.667 -100.5 -477c0 -53.333 10.833 -94.666 32.5 -123.999s51.834 -44 90.501 -44
c69.333 0 152.666 56.667 249.999 170v-115zM1118 1298c-61.333 33.333 -127.334 50 -198.001 50c-111.333 0 -211.666 -46.5 -300.999 -139.5s-159.833 -216.167 -211.5 -369.5s-77.5 -286.333 -77.5 -399c0 -75.333 14.5 -136.5 43.5 -183.5s66.167 -70.5 111.5 -70.5
c78.667 0 169 71.667 271 215c42 376 162.667 675 362 897zM1288 1907c-18 -72.667 -55.167 -136.667 -111.5 -192s-143.5 -115.666 -261.5 -180.999l-61 21c99.333 115.333 167.333 224.666 204 327.999z" />
    <glyph glyph-name="Acircumflex" unicode="&#xc2;" horiz-adv-x="1386" 
d="M1409 221c-153.333 -164 -293.999 -246.001 -421.999 -246.001c-70.667 0 -126.667 25 -168 75s-64.333 121.333 -69 214c-80.667 -98 -152.167 -170.667 -214.5 -218s-128.833 -71 -199.5 -71c-90.667 0 -163.5 39.167 -218.5 117.5s-82.5 182.833 -82.5 313.5
c0 156 36 316.833 108 482.5s178.667 296.5 320 392.5s312.666 144 513.999 144c150.667 0 287 -20.333 409 -61v-66c-99.333 -116 -182.5 -278.333 -249.5 -487s-100.5 -367.667 -100.5 -477c0 -53.333 10.833 -94.666 32.5 -123.999s51.834 -44 90.501 -44
c69.333 0 152.666 56.667 249.999 170v-115zM1118 1298c-61.333 33.333 -127.334 50 -198.001 50c-111.333 0 -211.666 -46.5 -300.999 -139.5s-159.833 -216.167 -211.5 -369.5s-77.5 -286.333 -77.5 -399c0 -75.333 14.5 -136.5 43.5 -183.5s66.167 -70.5 111.5 -70.5
c78.667 0 169 71.667 271 215c42 376 162.667 675 362 897zM1190 1571l-8 -39.002c-99.333 24 -184 102 -254 234c-58 -66.667 -111.833 -116.167 -161.5 -148.5s-118.167 -62.166 -205.5 -89.499l10 49c122.667 86 226 197.333 310 334l215 39
c0 -104.667 5.66699 -182.167 17 -232.5s37 -99.166 77 -146.499z" />
    <glyph glyph-name="Atilde" unicode="&#xc3;" horiz-adv-x="1386" 
d="M1409 221c-153.333 -164 -293.999 -246.001 -421.999 -246.001c-70.667 0 -126.667 25 -168 75s-64.333 121.333 -69 214c-80.667 -98 -152.167 -170.667 -214.5 -218s-128.833 -71 -199.5 -71c-90.667 0 -163.5 39.167 -218.5 117.5s-82.5 182.833 -82.5 313.5
c0 156 36 316.833 108 482.5s178.667 296.5 320 392.5s312.666 144 513.999 144c150.667 0 287 -20.333 409 -61v-66c-99.333 -116 -182.5 -278.333 -249.5 -487s-100.5 -367.667 -100.5 -477c0 -53.333 10.833 -94.666 32.5 -123.999s51.834 -44 90.501 -44
c69.333 0 152.666 56.667 249.999 170v-115zM1118 1298c-61.333 33.333 -127.334 50 -198.001 50c-111.333 0 -211.666 -46.5 -300.999 -139.5s-159.833 -216.167 -211.5 -369.5s-77.5 -286.333 -77.5 -399c0 -75.333 14.5 -136.5 43.5 -183.5s66.167 -70.5 111.5 -70.5
c78.667 0 169 71.667 271 215c42 376 162.667 675 362 897zM1270 1758c-32 -66 -65.833 -114.333 -101.5 -145s-79.167 -46 -130.5 -46c-40.667 0 -87.667 14.667 -141 44s-96.333 44 -129 44c-48 0 -84.667 -23.667 -110 -71l-56 34c52 130 129.333 195 232 195
c43.333 0 93 -14 149 -42s95 -42 117 -42c49.333 0 87 26 113 78z" />
    <glyph glyph-name="Adieresis" unicode="&#xc4;" horiz-adv-x="1386" 
d="M1409 221c-153.333 -164 -293.999 -246.001 -421.999 -246.001c-70.667 0 -126.667 25 -168 75s-64.333 121.333 -69 214c-80.667 -98 -152.167 -170.667 -214.5 -218s-128.833 -71 -199.5 -71c-90.667 0 -163.5 39.167 -218.5 117.5s-82.5 182.833 -82.5 313.5
c0 156 36 316.833 108 482.5s178.667 296.5 320 392.5s312.666 144 513.999 144c150.667 0 287 -20.333 409 -61v-66c-99.333 -116 -182.5 -278.333 -249.5 -487s-100.5 -367.667 -100.5 -477c0 -53.333 10.833 -94.666 32.5 -123.999s51.834 -44 90.501 -44
c69.333 0 152.666 56.667 249.999 170v-115zM1118 1298c-61.333 33.333 -127.334 50 -198.001 50c-111.333 0 -211.666 -46.5 -300.999 -139.5s-159.833 -216.167 -211.5 -369.5s-77.5 -286.333 -77.5 -399c0 -75.333 14.5 -136.5 43.5 -183.5s66.167 -70.5 111.5 -70.5
c78.667 0 169 71.667 271 215c42 376 162.667 675 362 897zM1231 1759c-8.66699 -108 -50.334 -162 -125.001 -162c-36 0 -87 20.333 -153 61c42.667 69.333 73.334 131 92.001 185c72.667 -45.333 134.667 -73.333 186 -84zM873 1763
c-12.667 -109.333 -57.001 -164 -133.001 -164c-42 0 -90 20.333 -144 61c40 64.667 68.667 125.667 86 183c80.667 -50 144.334 -76.667 191.001 -80z" />
    <glyph glyph-name="Aring" unicode="&#xc5;" horiz-adv-x="1386" 
d="M1409 221c-153.333 -164 -293.999 -246.001 -421.999 -246.001c-70.667 0 -126.667 25 -168 75s-64.333 121.333 -69 214c-80.667 -98 -152.167 -170.667 -214.5 -218s-128.833 -71 -199.5 -71c-90.667 0 -163.5 39.167 -218.5 117.5s-82.5 182.833 -82.5 313.5
c0 156 36 316.833 108 482.5s178.667 296.5 320 392.5s312.666 144 513.999 144c150.667 0 287 -20.333 409 -61v-66c-99.333 -116 -182.5 -278.333 -249.5 -487s-100.5 -367.667 -100.5 -477c0 -53.333 10.833 -94.666 32.5 -123.999s51.834 -44 90.501 -44
c69.333 0 152.666 56.667 249.999 170v-115zM1118 1298c-61.333 33.333 -127.334 50 -198.001 50c-111.333 0 -211.666 -46.5 -300.999 -139.5s-159.833 -216.167 -211.5 -369.5s-77.5 -286.333 -77.5 -399c0 -75.333 14.5 -136.5 43.5 -183.5s66.167 -70.5 111.5 -70.5
c78.667 0 169 71.667 271 215c42 376 162.667 675 362 897zM956 1911c54 0 99.667 -18 137 -54s56 -80 56 -132s-18.5 -96.5 -55.5 -133.5s-81.167 -55.5 -132.5 -55.5c-52 0 -96.5 18.5 -133.5 55.5s-55.5 81.5 -55.5 133.5c0 50 18.333 93.5 55 130.5
s79.667 55.5 129 55.5zM961 1610c31.333 0 58.5 11.333 81.5 34s34.5 49.667 34.5 81c0 30.667 -11.5 57.5 -34.5 80.5s-49.5 34.5 -79.5 34.5c-32 0 -59.5 -11.333 -82.5 -34s-34.5 -49.667 -34.5 -81c0 -32 11.167 -59.167 33.5 -81.5s49.5 -33.5 81.5 -33.5z" />
    <glyph glyph-name="AE" unicode="&#xc6;" horiz-adv-x="1749" 
d="M1772 221c-80.667 -91.333 -164.667 -154.833 -252 -190.5s-181 -53.5 -281 -53.5c-238.667 0 -395 102 -469 306c-66.667 -106 -135.667 -183.5 -207 -232.5s-137.333 -73.5 -198 -73.5c-86.667 0 -158.167 40.167 -214.5 120.5s-84.5 183.833 -84.5 310.5
c0 159.333 37.667 321.833 113 487.5s182.833 296.167 322.5 391.5s303.5 143 491.5 143c94.667 0 186.334 -13 275.001 -39c68 27.333 133.333 41 196 41c96.667 0 169.667 -20.333 219 -61s74 -75.667 74 -105c0 -21.333 -16.167 -53.333 -48.5 -96s-57.833 -64 -76.5 -64
c-17.333 0 -30.333 27.333 -39 82c-18 110.667 -62.333 166 -133 166c-58.667 0 -110.5 -32 -155.5 -96s-67.5 -138.667 -67.5 -224c0 -56 16.5 -100 49.5 -132s78.5 -48 136.5 -48l43 4c8.66699 0 13 -4.66699 13 -14c0 -18.667 -6.16699 -47.334 -18.5 -86.001
s-23.5 -58 -33.5 -58c-12.667 0 -31 1.5 -55 4.5s-41 4.5 -51 4.5c-78 0 -141.833 -27.167 -191.5 -81.5s-74.5 -124.166 -74.5 -209.499c0 -92.667 29.167 -168.167 87.5 -226.5s134.166 -87.5 227.499 -87.5c145.333 0 279.333 77.333 402 232v-115zM1200 770
c-79.333 38 -136.999 77.333 -172.999 118s-54 93.667 -54 159c0 103.333 50.333 193.333 151 270c-48.667 24.667 -104 37 -166 37c-116 0 -219.667 -48 -311 -144s-163 -223.5 -215 -382.5s-78 -294.833 -78 -407.5c0 -69.333 15.167 -125.666 45.5 -168.999
s69.166 -65 116.499 -65c40 0 79.5 17.167 118.5 51.5s78.667 91.666 119 171.999s75.5 140.833 105.5 181.5s72.5 77.5 127.5 110.5s126.167 55.833 213.5 68.5z" />
    <glyph glyph-name="Ccedilla" unicode="&#xc7;" horiz-adv-x="1153" 
d="M1176 221c-129.333 -135.333 -276.997 -213.671 -442.997 -235.004l-45 -54c88.667 -16 133 -65 133 -147c0 -36 -10.333 -68.5 -31 -97.5s-53.334 -55.5 -98.001 -79.5s-89.834 -39 -135.501 -45s-102.167 -9 -169.5 -9l14 79c139.333 0 209 40.333 209 121
c0 58.667 -36 89.334 -108 92.001c56.667 56 96.334 99 119.001 129c-171.333 1.33301 -308.166 51.333 -410.499 150s-153.5 227.667 -153.5 387c0 156.667 37 305.667 111 447s170.833 254.333 290.5 339s237.167 127 352.5 127c96.667 0 175.5 -29 236.5 -87
s91.5 -133.333 91.5 -226c0 -120.667 -36.833 -225.167 -110.5 -313.5s-159.834 -132.5 -258.501 -132.5c-52 0 -94.667 13.333 -128 40s-50 61 -50 103c0 36 14.333 69.333 43 100c21.333 -39.333 50.666 -59 87.999 -59c53.333 0 102.833 33.333 148.5 100
s68.5 139.667 68.5 219c0 55.333 -12.833 99.333 -38.5 132s-59.834 49 -102.501 49c-62 0 -128.167 -38.667 -198.5 -116s-129 -176.666 -176 -297.999s-70.5 -236.666 -70.5 -345.999c0 -139.333 39.5 -253.666 118.5 -342.999s179.5 -134 301.5 -134
c77.333 0 147 18 209 54s126.333 92.333 193 169v-115z" />
    <glyph glyph-name="Egrave" unicode="&#xc8;" 
d="M1090 221c-86 -84 -172.331 -145.669 -258.998 -185.002s-184.667 -59 -294 -59c-144.667 0 -260.5 35 -347.5 105s-130.5 162 -130.5 276c0 99.333 35.667 186.5 107 261.5s180.666 127.167 327.999 156.5c-142 54 -213 145 -213 273c0 102 49 190.167 147 264.5
s216 111.5 354 111.5c99.333 0 171.333 -19.5 216 -58.5s67 -74.5 67 -106.5c0 -20 -16.667 -51 -50 -93s-57.666 -63 -72.999 -63c-18 0 -31 25.333 -39 76c-18.667 113.333 -64.334 170 -137.001 170c-56.667 0 -108 -31.667 -154 -95s-69 -135 -69 -215
c0 -128 62.667 -192 188 -192c20.667 0 34.667 -1.16699 42 -3.5s11 -8.16602 11 -17.499c0 -25.333 -5 -53.166 -15 -83.499s-22.667 -45.5 -38 -45.5c-4.66699 0 -21.334 1.83301 -50.001 5.5s-53.667 5.5 -75 5.5c-70.667 0 -131.334 -29 -182.001 -87s-76 -128 -76 -210
c0 -88.667 29.667 -162.167 89 -220.5s134.333 -87.5 225 -87.5c74.667 0 149.334 20 224.001 60s142.667 97.333 204 172v-115zM739.002 1553l-47 -26.999c-154 91.333 -266 208 -336 350l231 39c17.333 -114.667 68 -235.334 152 -362.001z" />
    <glyph glyph-name="Eacute" unicode="&#xc9;" 
d="M1090 221c-86 -84 -172.331 -145.669 -258.998 -185.002s-184.667 -59 -294 -59c-144.667 0 -260.5 35 -347.5 105s-130.5 162 -130.5 276c0 99.333 35.667 186.5 107 261.5s180.666 127.167 327.999 156.5c-142 54 -213 145 -213 273c0 102 49 190.167 147 264.5
s216 111.5 354 111.5c99.333 0 171.333 -19.5 216 -58.5s67 -74.5 67 -106.5c0 -20 -16.667 -51 -50 -93s-57.666 -63 -72.999 -63c-18 0 -31 25.333 -39 76c-18.667 113.333 -64.334 170 -137.001 170c-56.667 0 -108 -31.667 -154 -95s-69 -135 -69 -215
c0 -128 62.667 -192 188 -192c20.667 0 34.667 -1.16699 42 -3.5s11 -8.16602 11 -17.499c0 -25.333 -5 -53.166 -15 -83.499s-22.667 -45.5 -38 -45.5c-4.66699 0 -21.334 1.83301 -50.001 5.5s-53.667 5.5 -75 5.5c-70.667 0 -131.334 -29 -182.001 -87s-76 -128 -76 -210
c0 -88.667 29.667 -162.167 89 -220.5s134.333 -87.5 225 -87.5c74.667 0 149.334 20 224.001 60s142.667 97.333 204 172v-115zM1067 1907c-18 -72.667 -55.167 -136.667 -111.5 -192s-143.5 -115.666 -261.5 -180.999l-61 21c99.333 115.333 167.333 224.666 204 327.999z
" />
    <glyph glyph-name="Ecircumflex" unicode="&#xca;" 
d="M1090 221c-86 -84 -172.331 -145.669 -258.998 -185.002s-184.667 -59 -294 -59c-144.667 0 -260.5 35 -347.5 105s-130.5 162 -130.5 276c0 99.333 35.667 186.5 107 261.5s180.666 127.167 327.999 156.5c-142 54 -213 145 -213 273c0 102 49 190.167 147 264.5
s216 111.5 354 111.5c99.333 0 171.333 -19.5 216 -58.5s67 -74.5 67 -106.5c0 -20 -16.667 -51 -50 -93s-57.666 -63 -72.999 -63c-18 0 -31 25.333 -39 76c-18.667 113.333 -64.334 170 -137.001 170c-56.667 0 -108 -31.667 -154 -95s-69 -135 -69 -215
c0 -128 62.667 -192 188 -192c20.667 0 34.667 -1.16699 42 -3.5s11 -8.16602 11 -17.499c0 -25.333 -5 -53.166 -15 -83.499s-22.667 -45.5 -38 -45.5c-4.66699 0 -21.334 1.83301 -50.001 5.5s-53.667 5.5 -75 5.5c-70.667 0 -131.334 -29 -182.001 -87s-76 -128 -76 -210
c0 -88.667 29.667 -162.167 89 -220.5s134.333 -87.5 225 -87.5c74.667 0 149.334 20 224.001 60s142.667 97.333 204 172v-115zM1030 1571l-8 -39.002c-99.333 24 -184 102 -254 234c-58 -66.667 -111.833 -116.167 -161.5 -148.5s-118.167 -62.166 -205.5 -89.499l10 49
c122.667 86 226 197.333 310 334l215 39c0 -104.667 5.66699 -182.167 17 -232.5s37 -99.166 77 -146.499z" />
    <glyph glyph-name="Edieresis" unicode="&#xcb;" 
d="M1090 221c-86 -84 -172.331 -145.669 -258.998 -185.002s-184.667 -59 -294 -59c-144.667 0 -260.5 35 -347.5 105s-130.5 162 -130.5 276c0 99.333 35.667 186.5 107 261.5s180.666 127.167 327.999 156.5c-142 54 -213 145 -213 273c0 102 49 190.167 147 264.5
s216 111.5 354 111.5c99.333 0 171.333 -19.5 216 -58.5s67 -74.5 67 -106.5c0 -20 -16.667 -51 -50 -93s-57.666 -63 -72.999 -63c-18 0 -31 25.333 -39 76c-18.667 113.333 -64.334 170 -137.001 170c-56.667 0 -108 -31.667 -154 -95s-69 -135 -69 -215
c0 -128 62.667 -192 188 -192c20.667 0 34.667 -1.16699 42 -3.5s11 -8.16602 11 -17.499c0 -25.333 -5 -53.166 -15 -83.499s-22.667 -45.5 -38 -45.5c-4.66699 0 -21.334 1.83301 -50.001 5.5s-53.667 5.5 -75 5.5c-70.667 0 -131.334 -29 -182.001 -87s-76 -128 -76 -210
c0 -88.667 29.667 -162.167 89 -220.5s134.333 -87.5 225 -87.5c74.667 0 149.334 20 224.001 60s142.667 97.333 204 172v-115zM1041 1759c-8.66699 -108 -50.334 -162 -125.001 -162c-36 0 -87 20.333 -153 61c42.667 69.333 73.334 131 92.001 185
c72.667 -45.333 134.667 -73.333 186 -84zM683.002 1763c-12.667 -109.333 -57.001 -164 -133.001 -164c-42 0 -90 20.333 -144 61c40 64.667 68.667 125.667 86 183c80.667 -50 144.334 -76.667 191.001 -80z" />
    <glyph glyph-name="Igrave" unicode="&#xcc;" horiz-adv-x="1237" 
d="M1061 1257c-65.333 -26.667 -124.663 -40 -177.996 -40c-32.667 0 -70 7.83301 -112 23.5s-73.667 23.5 -95 23.5c-50 0 -94 -19 -132 -57s-57 -82 -57 -132c0 -44.667 21.333 -81.334 64 -110.001c22 -16.667 33 -31 33 -43c0 -20 -13 -44.5 -39 -73.5
s-50.667 -43.5 -74 -43.5c-26.667 0 -51 18 -73 54s-33 76.667 -33 122c0 100 48 199 144 297s192.667 147 290 147c28.667 0 66 -8.16699 112 -24.5s85.667 -24.5 119 -24.5c36 0 70.333 11.667 103 35c14.667 9.33301 26 14 34 14c10 0 23.5 -5.16699 40.5 -15.5
s25.5 -21.5 25.5 -33.5c0 -6.66699 -17.667 -29.667 -53 -69c-53.333 -58 -90.333 -121.5 -111 -190.5s-41.667 -175.5 -63 -319.5s-44.833 -261.5 -70.5 -352.5s-65.334 -173.333 -119.001 -247s-116.834 -128.834 -189.501 -165.501s-152 -55 -238 -55
c-102 0 -184.167 23.5 -246.5 70.5s-93.5 91.833 -93.5 134.5c0 24.667 24 57.834 72 99.501s79.333 62.5 94 62.5c19.333 0 31.333 -7 36 -21s7 -38.333 7 -73c0 -58.667 13.167 -105.834 39.5 -141.501s60.833 -53.5 103.5 -53.5c63.333 0 117.166 33.333 161.499 100
s80.5 188.334 108.5 365.001s65.667 312.334 113 407.001s139.666 204.667 276.999 330zM897.003 1553l-47 -26.999c-154 91.333 -266 208 -336 350l231 39c17.333 -114.667 68 -235.334 152 -362.001z" />
    <glyph glyph-name="Iacute" unicode="&#xcd;" horiz-adv-x="1237" 
d="M1061 1257c-65.333 -26.667 -124.663 -40 -177.996 -40c-32.667 0 -70 7.83301 -112 23.5s-73.667 23.5 -95 23.5c-50 0 -94 -19 -132 -57s-57 -82 -57 -132c0 -44.667 21.333 -81.334 64 -110.001c22 -16.667 33 -31 33 -43c0 -20 -13 -44.5 -39 -73.5
s-50.667 -43.5 -74 -43.5c-26.667 0 -51 18 -73 54s-33 76.667 -33 122c0 100 48 199 144 297s192.667 147 290 147c28.667 0 66 -8.16699 112 -24.5s85.667 -24.5 119 -24.5c36 0 70.333 11.667 103 35c14.667 9.33301 26 14 34 14c10 0 23.5 -5.16699 40.5 -15.5
s25.5 -21.5 25.5 -33.5c0 -6.66699 -17.667 -29.667 -53 -69c-53.333 -58 -90.333 -121.5 -111 -190.5s-41.667 -175.5 -63 -319.5s-44.833 -261.5 -70.5 -352.5s-65.334 -173.333 -119.001 -247s-116.834 -128.834 -189.501 -165.501s-152 -55 -238 -55
c-102 0 -184.167 23.5 -246.5 70.5s-93.5 91.833 -93.5 134.5c0 24.667 24 57.834 72 99.501s79.333 62.5 94 62.5c19.333 0 31.333 -7 36 -21s7 -38.333 7 -73c0 -58.667 13.167 -105.834 39.5 -141.501s60.833 -53.5 103.5 -53.5c63.333 0 117.166 33.333 161.499 100
s80.5 188.334 108.5 365.001s65.667 312.334 113 407.001s139.666 204.667 276.999 330zM1265 1907c-18 -72.667 -55.167 -136.667 -111.5 -192s-143.5 -115.666 -261.5 -180.999l-61 21c99.333 115.333 167.333 224.666 204 327.999z" />
    <glyph glyph-name="Icircumflex" unicode="&#xce;" horiz-adv-x="1237" 
d="M1061 1257c-65.333 -26.667 -124.663 -40 -177.996 -40c-32.667 0 -70 7.83301 -112 23.5s-73.667 23.5 -95 23.5c-50 0 -94 -19 -132 -57s-57 -82 -57 -132c0 -44.667 21.333 -81.334 64 -110.001c22 -16.667 33 -31 33 -43c0 -20 -13 -44.5 -39 -73.5
s-50.667 -43.5 -74 -43.5c-26.667 0 -51 18 -73 54s-33 76.667 -33 122c0 100 48 199 144 297s192.667 147 290 147c28.667 0 66 -8.16699 112 -24.5s85.667 -24.5 119 -24.5c36 0 70.333 11.667 103 35c14.667 9.33301 26 14 34 14c10 0 23.5 -5.16699 40.5 -15.5
s25.5 -21.5 25.5 -33.5c0 -6.66699 -17.667 -29.667 -53 -69c-53.333 -58 -90.333 -121.5 -111 -190.5s-41.667 -175.5 -63 -319.5s-44.833 -261.5 -70.5 -352.5s-65.334 -173.333 -119.001 -247s-116.834 -128.834 -189.501 -165.501s-152 -55 -238 -55
c-102 0 -184.167 23.5 -246.5 70.5s-93.5 91.833 -93.5 134.5c0 24.667 24 57.834 72 99.501s79.333 62.5 94 62.5c19.333 0 31.333 -7 36 -21s7 -38.333 7 -73c0 -58.667 13.167 -105.834 39.5 -141.501s60.833 -53.5 103.5 -53.5c63.333 0 117.166 33.333 161.499 100
s80.5 188.334 108.5 365.001s65.667 312.334 113 407.001s139.666 204.667 276.999 330zM1147 1571l-8 -39.002c-99.333 24 -184 102 -254 234c-58 -66.667 -111.833 -116.167 -161.5 -148.5s-118.167 -62.166 -205.5 -89.499l10 49c122.667 86 226 197.333 310 334l215 39
c0 -104.667 5.66699 -182.167 17 -232.5s37 -99.166 77 -146.499z" />
    <glyph glyph-name="Idieresis" unicode="&#xcf;" horiz-adv-x="1237" 
d="M1061 1257c-65.333 -26.667 -124.663 -40 -177.996 -40c-32.667 0 -70 7.83301 -112 23.5s-73.667 23.5 -95 23.5c-50 0 -94 -19 -132 -57s-57 -82 -57 -132c0 -44.667 21.333 -81.334 64 -110.001c22 -16.667 33 -31 33 -43c0 -20 -13 -44.5 -39 -73.5
s-50.667 -43.5 -74 -43.5c-26.667 0 -51 18 -73 54s-33 76.667 -33 122c0 100 48 199 144 297s192.667 147 290 147c28.667 0 66 -8.16699 112 -24.5s85.667 -24.5 119 -24.5c36 0 70.333 11.667 103 35c14.667 9.33301 26 14 34 14c10 0 23.5 -5.16699 40.5 -15.5
s25.5 -21.5 25.5 -33.5c0 -6.66699 -17.667 -29.667 -53 -69c-53.333 -58 -90.333 -121.5 -111 -190.5s-41.667 -175.5 -63 -319.5s-44.833 -261.5 -70.5 -352.5s-65.334 -173.333 -119.001 -247s-116.834 -128.834 -189.501 -165.501s-152 -55 -238 -55
c-102 0 -184.167 23.5 -246.5 70.5s-93.5 91.833 -93.5 134.5c0 24.667 24 57.834 72 99.501s79.333 62.5 94 62.5c19.333 0 31.333 -7 36 -21s7 -38.333 7 -73c0 -58.667 13.167 -105.834 39.5 -141.501s60.833 -53.5 103.5 -53.5c63.333 0 117.166 33.333 161.499 100
s80.5 188.334 108.5 365.001s65.667 312.334 113 407.001s139.666 204.667 276.999 330zM1219 1759c-8.66699 -108 -50.334 -162 -125.001 -162c-36 0 -87 20.333 -153 61c42.667 69.333 73.334 131 92.001 185c72.667 -45.333 134.667 -73.333 186 -84zM861.003 1763
c-12.667 -109.333 -57.001 -164 -133.001 -164c-42 0 -90 20.333 -144 61c40 64.667 68.667 125.667 86 183c80.667 -50 144.334 -76.667 191.001 -80z" />
    <glyph glyph-name="Eth" unicode="&#xd0;" horiz-adv-x="1556" 
d="M567 180c22.667 -8.66699 67.9961 -27.4971 135.996 -56.4971s124.333 -43.5 169 -43.5c112 0 201.167 72.5 267.5 217.5s99.5 300.5 99.5 466.5c0 175.333 -42.5 316.5 -127.5 423.5s-196.167 160.5 -333.5 160.5c-110 0 -213.167 -39.5 -309.5 -118.5
s-144.5 -162.5 -144.5 -250.5c0 -65.333 28 -110.333 84 -135c24 -11.333 36 -26.333 36 -45s-25.167 -39.5 -75.5 -62.5s-83.166 -34.5 -98.499 -34.5c-34 0 -64 19.833 -90 59.5s-39 83.5 -39 131.5c0 127.333 66.5 248.166 199.5 362.499s306.167 171.5 519.5 171.5
c204.667 0 367.5 -56.167 488.5 -168.5s181.5 -262.833 181.5 -451.5c0 -144 -37.333 -280.667 -112 -410s-175.5 -232 -302.5 -308s-261.167 -114 -402.5 -114c-121.333 0 -232.666 26 -333.999 78c-85.333 -52 -157.666 -78 -216.999 -78c-34.667 0 -64.167 10 -88.5 30
s-36.5 44.333 -36.5 73c0 46.667 24.333 86 73 118s109.667 48 183 48c52 0 101.667 -8.33301 149 -25c41.333 31.333 69.833 72 85.5 122s35.167 161.667 58.5 335h-129l10 74h133c28 125.333 78.167 221.166 150.5 287.499s149.833 104.833 232.5 115.5l39 -53
c-80 -77.333 -126.333 -194 -139 -350h172l-13 -72h-168c-14.667 -128 -44.167 -228.333 -88.5 -301s-117.166 -138.334 -218.499 -197.001z" />
    <glyph glyph-name="Ntilde" unicode="&#xd1;" horiz-adv-x="1812" 
d="M1266 276c56 142.667 110.665 350.333 163.998 623c37.333 198.667 81 336 131 412s108.667 114 176 114c54.667 0 82 -31.333 82 -94c0 -36 -6.83301 -61.5 -20.5 -76.5s-41.834 -25.5 -84.501 -31.5s-81 -29.667 -115 -71s-65.333 -126.666 -94 -255.999l-73 -333
c-26 -115.333 -55.333 -216 -88 -302s-60 -149.667 -82 -191s-36.333 -64.333 -43 -69s-23.334 -8.33398 -50.001 -11.001l-108 -13c-25.333 -1.33301 -39.166 3.66699 -41.499 15s-5.66602 54.333 -9.99902 129s-9.16602 130.5 -14.499 167.5
s-24.666 137.833 -57.999 302.5s-55.666 331 -66.999 499c-4.66699 -2.66699 -32.5 -97.167 -83.5 -283.5s-86 -311 -105 -374s-45.5 -130.333 -79.5 -202s-77.667 -131.834 -131 -180.501s-116.666 -73 -189.999 -73c-64 0 -115.5 20.167 -154.5 60.5
s-58.5 77.833 -58.5 112.5c0 21.333 23.5 53.833 70.5 97.5s80.167 65.5 99.5 65.5c21.333 0 34.666 -23.5 39.999 -70.5s17.166 -82.167 35.499 -105.5s40.166 -35 65.499 -35c99.333 0 197 189.333 293 568l30 121c56.667 218.667 102 377 136 475l32 94
c7.33301 20.667 14.5 33.334 21.5 38.001s24.5 9 52.5 13l105 14c15.333 2.66699 27 4 35 4c14.667 0 24.334 -3.66699 29.001 -11s7 -21.333 7 -42c0 -144.667 22.167 -339 66.5 -583s70.833 -416.333 79.5 -517zM1647 1758c-32 -66 -65.833 -114.333 -101.5 -145
s-79.167 -46 -130.5 -46c-40.667 0 -87.667 14.667 -141 44s-96.333 44 -129 44c-48 0 -84.667 -23.667 -110 -71l-56 34c52 130 129.333 195 232 195c43.333 0 93 -14 149 -42s95 -42 117 -42c49.333 0 87 26 113 78z" />
    <glyph glyph-name="Ograve" unicode="&#xd2;" horiz-adv-x="1300" 
d="M791 1409c-151.333 -144.667 -261.332 -298.838 -329.999 -462.505s-103 -321.5 -103 -473.5c0 -97.333 19.333 -174.166 58 -230.499s91 -84.5 157 -84.5c132 0 269.5 115.5 412.5 346.5s214.5 445.167 214.5 642.5c0 58.667 -9.5 105.334 -28.5 140.001
s-44.167 52 -75.5 52c-58 0 -111.833 -43.667 -161.5 -131s-74.5 -165 -74.5 -233c0 -48.667 22.667 -76 68 -82c18.667 -2 28 -11 28 -27c0 -29.333 -15 -58.166 -45 -86.499s-61.333 -42.5 -94 -42.5c-40 0 -73.5 18.167 -100.5 54.5s-40.5 81.833 -40.5 136.5
c0 115.333 43.5 227 130.5 335s175.833 162 266.5 162c62 0 111 -24.5 147 -73.5s54 -116.5 54 -202.5c0 -166 -46 -342.667 -138 -530s-207 -341.166 -345 -461.499s-268 -180.5 -390 -180.5c-94.667 0 -172.834 40 -234.501 120s-92.5 183 -92.5 309
c0 134 26.833 269.667 80.5 407s123.5 259.833 209.5 367.5s154.333 175.334 205 203.001s124.667 41.5 222 41.5v-16zM856.001 1553l-47 -26.999c-154 91.333 -266 208 -336 350l231 39c17.333 -114.667 68 -235.334 152 -362.001z" />
    <glyph glyph-name="Oacute" unicode="&#xd3;" horiz-adv-x="1300" 
d="M791 1409c-151.333 -144.667 -261.332 -298.838 -329.999 -462.505s-103 -321.5 -103 -473.5c0 -97.333 19.333 -174.166 58 -230.499s91 -84.5 157 -84.5c132 0 269.5 115.5 412.5 346.5s214.5 445.167 214.5 642.5c0 58.667 -9.5 105.334 -28.5 140.001
s-44.167 52 -75.5 52c-58 0 -111.833 -43.667 -161.5 -131s-74.5 -165 -74.5 -233c0 -48.667 22.667 -76 68 -82c18.667 -2 28 -11 28 -27c0 -29.333 -15 -58.166 -45 -86.499s-61.333 -42.5 -94 -42.5c-40 0 -73.5 18.167 -100.5 54.5s-40.5 81.833 -40.5 136.5
c0 115.333 43.5 227 130.5 335s175.833 162 266.5 162c62 0 111 -24.5 147 -73.5s54 -116.5 54 -202.5c0 -166 -46 -342.667 -138 -530s-207 -341.166 -345 -461.499s-268 -180.5 -390 -180.5c-94.667 0 -172.834 40 -234.501 120s-92.5 183 -92.5 309
c0 134 26.833 269.667 80.5 407s123.5 259.833 209.5 367.5s154.333 175.334 205 203.001s124.667 41.5 222 41.5v-16zM1286 1907c-18 -72.667 -55.167 -136.667 -111.5 -192s-143.5 -115.666 -261.5 -180.999l-61 21c99.333 115.333 167.333 224.666 204 327.999z" />
    <glyph glyph-name="Ocircumflex" unicode="&#xd4;" horiz-adv-x="1300" 
d="M791 1409c-151.333 -144.667 -261.332 -298.838 -329.999 -462.505s-103 -321.5 -103 -473.5c0 -97.333 19.333 -174.166 58 -230.499s91 -84.5 157 -84.5c132 0 269.5 115.5 412.5 346.5s214.5 445.167 214.5 642.5c0 58.667 -9.5 105.334 -28.5 140.001
s-44.167 52 -75.5 52c-58 0 -111.833 -43.667 -161.5 -131s-74.5 -165 -74.5 -233c0 -48.667 22.667 -76 68 -82c18.667 -2 28 -11 28 -27c0 -29.333 -15 -58.166 -45 -86.499s-61.333 -42.5 -94 -42.5c-40 0 -73.5 18.167 -100.5 54.5s-40.5 81.833 -40.5 136.5
c0 115.333 43.5 227 130.5 335s175.833 162 266.5 162c62 0 111 -24.5 147 -73.5s54 -116.5 54 -202.5c0 -166 -46 -342.667 -138 -530s-207 -341.166 -345 -461.499s-268 -180.5 -390 -180.5c-94.667 0 -172.834 40 -234.501 120s-92.5 183 -92.5 309
c0 134 26.833 269.667 80.5 407s123.5 259.833 209.5 367.5s154.333 175.334 205 203.001s124.667 41.5 222 41.5v-16zM1157 1571l-8 -39.002c-99.333 24 -184 102 -254 234c-58 -66.667 -111.833 -116.167 -161.5 -148.5s-118.167 -62.166 -205.5 -89.499l10 49
c122.667 86 226 197.333 310 334l215 39c0 -104.667 5.66699 -182.167 17 -232.5s37 -99.166 77 -146.499z" />
    <glyph glyph-name="Otilde" unicode="&#xd5;" horiz-adv-x="1300" 
d="M791 1409c-151.333 -144.667 -261.332 -298.838 -329.999 -462.505s-103 -321.5 -103 -473.5c0 -97.333 19.333 -174.166 58 -230.499s91 -84.5 157 -84.5c132 0 269.5 115.5 412.5 346.5s214.5 445.167 214.5 642.5c0 58.667 -9.5 105.334 -28.5 140.001
s-44.167 52 -75.5 52c-58 0 -111.833 -43.667 -161.5 -131s-74.5 -165 -74.5 -233c0 -48.667 22.667 -76 68 -82c18.667 -2 28 -11 28 -27c0 -29.333 -15 -58.166 -45 -86.499s-61.333 -42.5 -94 -42.5c-40 0 -73.5 18.167 -100.5 54.5s-40.5 81.833 -40.5 136.5
c0 115.333 43.5 227 130.5 335s175.833 162 266.5 162c62 0 111 -24.5 147 -73.5s54 -116.5 54 -202.5c0 -166 -46 -342.667 -138 -530s-207 -341.166 -345 -461.499s-268 -180.5 -390 -180.5c-94.667 0 -172.834 40 -234.501 120s-92.5 183 -92.5 309
c0 134 26.833 269.667 80.5 407s123.5 259.833 209.5 367.5s154.333 175.334 205 203.001s124.667 41.5 222 41.5v-16zM1237 1758c-32 -66 -65.833 -114.333 -101.5 -145s-79.167 -46 -130.5 -46c-40.667 0 -87.667 14.667 -141 44s-96.333 44 -129 44
c-48 0 -84.667 -23.667 -110 -71l-56 34c52 130 129.333 195 232 195c43.333 0 93 -14 149 -42s95 -42 117 -42c49.333 0 87 26 113 78z" />
    <glyph glyph-name="Odieresis" unicode="&#xd6;" horiz-adv-x="1300" 
d="M791 1409c-151.333 -144.667 -261.332 -298.838 -329.999 -462.505s-103 -321.5 -103 -473.5c0 -97.333 19.333 -174.166 58 -230.499s91 -84.5 157 -84.5c132 0 269.5 115.5 412.5 346.5s214.5 445.167 214.5 642.5c0 58.667 -9.5 105.334 -28.5 140.001
s-44.167 52 -75.5 52c-58 0 -111.833 -43.667 -161.5 -131s-74.5 -165 -74.5 -233c0 -48.667 22.667 -76 68 -82c18.667 -2 28 -11 28 -27c0 -29.333 -15 -58.166 -45 -86.499s-61.333 -42.5 -94 -42.5c-40 0 -73.5 18.167 -100.5 54.5s-40.5 81.833 -40.5 136.5
c0 115.333 43.5 227 130.5 335s175.833 162 266.5 162c62 0 111 -24.5 147 -73.5s54 -116.5 54 -202.5c0 -166 -46 -342.667 -138 -530s-207 -341.166 -345 -461.499s-268 -180.5 -390 -180.5c-94.667 0 -172.834 40 -234.501 120s-92.5 183 -92.5 309
c0 134 26.833 269.667 80.5 407s123.5 259.833 209.5 367.5s154.333 175.334 205 203.001s124.667 41.5 222 41.5v-16zM1188 1759c-8.66699 -108 -50.334 -162 -125.001 -162c-36 0 -87 20.333 -153 61c42.667 69.333 73.334 131 92.001 185
c72.667 -45.333 134.667 -73.333 186 -84zM830.001 1763c-12.667 -109.333 -57.001 -164 -133.001 -164c-42 0 -90 20.333 -144 61c40 64.667 68.667 125.667 86 183c80.667 -50 144.334 -76.667 191.001 -80z" />
    <glyph glyph-name="multiply" unicode="&#xd7;" horiz-adv-x="1368" 
d="M1194 944l-397 -397l393 -393l-111 -111l-393 393l-397 -395l-111 111l395 395l-397 397l111 111l397 -398l397 398z" />
    <glyph glyph-name="Oslash" unicode="&#xd8;" horiz-adv-x="1300" 
d="M1315 1397l-69.999 -90.002c19.333 -43.333 29 -95.333 29 -156c0 -166.667 -46 -343.5 -138 -530.5s-207.167 -340.5 -345.5 -460.5s-268.833 -180 -391.5 -180c-41.333 0 -86.333 9.33301 -135 28l-63 -84l-47 37l59 80c-98 90.667 -147 214.334 -147 371.001
c0 103.333 14.5 203.5 43.5 300.5s76.333 200.167 142 309.5s127 195.5 184 258.5s108.5 103.667 154.5 122s103.333 27.5 172 27.5h20c4 0 6 -1.66699 6 -5c0 -8 -9.33301 -19.333 -28 -34c-98.667 -84 -191.334 -213.667 -278.001 -389s-130 -352.333 -130 -531
c0 -72.667 13 -136.667 39 -192l363 479c-54.667 40.667 -82 97.334 -82 170.001c0 119.333 43.333 232.833 130 340.5s177 161.5 271 161.5c55.333 0 102.333 -21.333 141 -64l48 61zM1165 1303c-18.667 26.667 -42.333 40 -71 40c-57.333 0 -111.333 -43.833 -162 -131.5
s-76 -165.167 -76 -232.5c0 -24 7 -43 21 -57zM426.002 222.998c39.333 -43.333 89 -64.999 149 -64.999c125.333 0 260.833 114.333 406.5 343s218.5 446.667 218.5 654c0 35.333 -4 60.666 -12 75.999l-250 -334c9.33301 -5.33301 14 -15 14 -29
c0 -29.333 -12.167 -56.333 -36.5 -81s-55.833 -40 -94.5 -46z" />
    <glyph glyph-name="Ugrave" unicode="&#xd9;" horiz-adv-x="1556" 
d="M1579 221c-152 -162.667 -282.333 -243.994 -391 -243.994c-56.667 0 -109.667 25.667 -159 77s-72 137.666 -68 258.999c-116.667 -224 -249.334 -336 -398.001 -336c-72 0 -129.833 27.667 -173.5 83s-65.5 129.666 -65.5 222.999c0 100.667 40.667 267 122 499
c68.667 198.667 103 330.667 103 396c0 46.667 -10.833 84.167 -32.5 112.5s-49.834 42.5 -84.501 42.5c-52.667 0 -103.667 -31.167 -153 -93.5s-74 -127.5 -74 -195.5c0 -60 22.333 -110.333 67 -151c16.667 -14.667 25 -27 25 -37c0 -22 -14.667 -49 -44 -81
s-55.666 -48 -78.999 -48c-27.333 0 -53.333 19.667 -78 59s-37 82.333 -37 129c0 127.333 46 244.166 138 350.499s192.333 159.5 301 159.5c85.333 0 154.666 -33.167 207.999 -99.5s80 -153.166 80 -260.499c0 -126 -39.333 -299.333 -118 -520
c-54.667 -152.667 -82 -255.667 -82 -309c0 -34.667 7.83301 -61.834 23.5 -81.501s37.167 -29.5 64.5 -29.5c51.333 0 100.333 34.667 147 104s83.834 142 111.501 218s61.167 187 100.5 333l87 311c24 82.667 45 150.5 63 203.5s29.5 83 34.5 90s13.333 11.833 25 14.5
s33.834 6 66.501 10l143 16c20.667 0 29.667 -4.66699 27 -14l-47 -170c-44 -156.667 -90.833 -342.334 -140.5 -557.001s-74.5 -351.334 -74.5 -410.001c0 -44 8.33301 -79.167 25 -105.5s39 -39.5 67 -39.5c31.333 0 65.333 13.667 102 41s92.667 82.666 168 165.999v-115
zM934 1553.01l-47 -26.999c-154 91.333 -266 208 -336 350l231 39c17.333 -114.667 68 -235.334 152 -362.001z" />
    <glyph glyph-name="Uacute" unicode="&#xda;" horiz-adv-x="1556" 
d="M1579 221c-152 -162.667 -282.333 -243.994 -391 -243.994c-56.667 0 -109.667 25.667 -159 77s-72 137.666 -68 258.999c-116.667 -224 -249.334 -336 -398.001 -336c-72 0 -129.833 27.667 -173.5 83s-65.5 129.666 -65.5 222.999c0 100.667 40.667 267 122 499
c68.667 198.667 103 330.667 103 396c0 46.667 -10.833 84.167 -32.5 112.5s-49.834 42.5 -84.501 42.5c-52.667 0 -103.667 -31.167 -153 -93.5s-74 -127.5 -74 -195.5c0 -60 22.333 -110.333 67 -151c16.667 -14.667 25 -27 25 -37c0 -22 -14.667 -49 -44 -81
s-55.666 -48 -78.999 -48c-27.333 0 -53.333 19.667 -78 59s-37 82.333 -37 129c0 127.333 46 244.166 138 350.499s192.333 159.5 301 159.5c85.333 0 154.666 -33.167 207.999 -99.5s80 -153.166 80 -260.499c0 -126 -39.333 -299.333 -118 -520
c-54.667 -152.667 -82 -255.667 -82 -309c0 -34.667 7.83301 -61.834 23.5 -81.501s37.167 -29.5 64.5 -29.5c51.333 0 100.333 34.667 147 104s83.834 142 111.501 218s61.167 187 100.5 333l87 311c24 82.667 45 150.5 63 203.5s29.5 83 34.5 90s13.333 11.833 25 14.5
s33.834 6 66.501 10l143 16c20.667 0 29.667 -4.66699 27 -14l-47 -170c-44 -156.667 -90.833 -342.334 -140.5 -557.001s-74.5 -351.334 -74.5 -410.001c0 -44 8.33301 -79.167 25 -105.5s39 -39.5 67 -39.5c31.333 0 65.333 13.667 102 41s92.667 82.666 168 165.999v-115
zM1374 1907.01c-18 -72.667 -55.167 -136.667 -111.5 -192s-143.5 -115.666 -261.5 -180.999l-61 21c99.333 115.333 167.333 224.666 204 327.999z" />
    <glyph glyph-name="Ucircumflex" unicode="&#xdb;" horiz-adv-x="1556" 
d="M1579 221c-152 -162.667 -282.333 -243.994 -391 -243.994c-56.667 0 -109.667 25.667 -159 77s-72 137.666 -68 258.999c-116.667 -224 -249.334 -336 -398.001 -336c-72 0 -129.833 27.667 -173.5 83s-65.5 129.666 -65.5 222.999c0 100.667 40.667 267 122 499
c68.667 198.667 103 330.667 103 396c0 46.667 -10.833 84.167 -32.5 112.5s-49.834 42.5 -84.501 42.5c-52.667 0 -103.667 -31.167 -153 -93.5s-74 -127.5 -74 -195.5c0 -60 22.333 -110.333 67 -151c16.667 -14.667 25 -27 25 -37c0 -22 -14.667 -49 -44 -81
s-55.666 -48 -78.999 -48c-27.333 0 -53.333 19.667 -78 59s-37 82.333 -37 129c0 127.333 46 244.166 138 350.499s192.333 159.5 301 159.5c85.333 0 154.666 -33.167 207.999 -99.5s80 -153.166 80 -260.499c0 -126 -39.333 -299.333 -118 -520
c-54.667 -152.667 -82 -255.667 -82 -309c0 -34.667 7.83301 -61.834 23.5 -81.501s37.167 -29.5 64.5 -29.5c51.333 0 100.333 34.667 147 104s83.834 142 111.501 218s61.167 187 100.5 333l87 311c24 82.667 45 150.5 63 203.5s29.5 83 34.5 90s13.333 11.833 25 14.5
s33.834 6 66.501 10l143 16c20.667 0 29.667 -4.66699 27 -14l-47 -170c-44 -156.667 -90.833 -342.334 -140.5 -557.001s-74.5 -351.334 -74.5 -410.001c0 -44 8.33301 -79.167 25 -105.5s39 -39.5 67 -39.5c31.333 0 65.333 13.667 102 41s92.667 82.666 168 165.999v-115
zM1266 1571.01l-8 -39.002c-99.333 24 -184 102 -254 234c-58 -66.667 -111.833 -116.167 -161.5 -148.5s-118.167 -62.166 -205.5 -89.499l10 49c122.667 86 226 197.333 310 334l215 39c0 -104.667 5.66699 -182.167 17 -232.5s37 -99.166 77 -146.499z" />
    <glyph glyph-name="Udieresis" unicode="&#xdc;" horiz-adv-x="1556" 
d="M1579 221c-152 -162.667 -282.333 -243.994 -391 -243.994c-56.667 0 -109.667 25.667 -159 77s-72 137.666 -68 258.999c-116.667 -224 -249.334 -336 -398.001 -336c-72 0 -129.833 27.667 -173.5 83s-65.5 129.666 -65.5 222.999c0 100.667 40.667 267 122 499
c68.667 198.667 103 330.667 103 396c0 46.667 -10.833 84.167 -32.5 112.5s-49.834 42.5 -84.501 42.5c-52.667 0 -103.667 -31.167 -153 -93.5s-74 -127.5 -74 -195.5c0 -60 22.333 -110.333 67 -151c16.667 -14.667 25 -27 25 -37c0 -22 -14.667 -49 -44 -81
s-55.666 -48 -78.999 -48c-27.333 0 -53.333 19.667 -78 59s-37 82.333 -37 129c0 127.333 46 244.166 138 350.499s192.333 159.5 301 159.5c85.333 0 154.666 -33.167 207.999 -99.5s80 -153.166 80 -260.499c0 -126 -39.333 -299.333 -118 -520
c-54.667 -152.667 -82 -255.667 -82 -309c0 -34.667 7.83301 -61.834 23.5 -81.501s37.167 -29.5 64.5 -29.5c51.333 0 100.333 34.667 147 104s83.834 142 111.501 218s61.167 187 100.5 333l87 311c24 82.667 45 150.5 63 203.5s29.5 83 34.5 90s13.333 11.833 25 14.5
s33.834 6 66.501 10l143 16c20.667 0 29.667 -4.66699 27 -14l-47 -170c-44 -156.667 -90.833 -342.334 -140.5 -557.001s-74.5 -351.334 -74.5 -410.001c0 -44 8.33301 -79.167 25 -105.5s39 -39.5 67 -39.5c31.333 0 65.333 13.667 102 41s92.667 82.666 168 165.999v-115
zM1286 1759.01c-8.66699 -108 -50.334 -162 -125.001 -162c-36 0 -87 20.333 -153 61c42.667 69.333 73.334 131 92.001 185c72.667 -45.333 134.667 -73.333 186 -84zM928 1763.01c-12.667 -109.333 -57.001 -164 -133.001 -164c-42 0 -90 20.333 -144 61
c40 64.667 68.667 125.667 86 183c80.667 -50 144.334 -76.667 191.001 -80z" />
    <glyph glyph-name="Yacute" unicode="&#xdd;" horiz-adv-x="1556" 
d="M1579 221c-66.667 -82.667 -188.998 -151.665 -366.998 -206.998c-63.333 -181.333 -141 -315 -233 -401s-187.667 -129 -287 -129c-50.667 0 -91.334 13.833 -122.001 41.5s-46 64.167 -46 109.5c0 143.333 141.333 264.333 424 363l23 94c66 268.667 107 429 123 481
l57 191c-7.33301 -14 -23 -47.667 -47 -101c-115.333 -258.667 -218 -435.5 -308 -530.5s-178.667 -142.5 -266 -142.5c-66.667 0 -120.834 26 -162.501 78s-62.5 120 -62.5 204c0 105.333 37.5 266 112.5 482s112.5 360 112.5 432c0 44 -11.5 80.5 -34.5 109.5
s-52.167 43.5 -87.5 43.5c-54.667 0 -106 -30.333 -154 -91s-72 -125.667 -72 -195c0 -63.333 22.667 -114.666 68 -153.999c16 -14.667 24 -26.334 24 -35.001c0 -20 -13.167 -47.5 -39.5 -82.5s-52.5 -52.5 -78.5 -52.5c-28 0 -54.833 19.667 -80.5 59s-38.5 81 -38.5 125
c0 118 43.333 234 130 348s190 171 310 171c85.333 0 155.166 -33.5 209.499 -100.5s81.5 -153.833 81.5 -260.5c0 -128 -41 -305.333 -123 -532c-56 -156.667 -84 -267.334 -84 -332.001c0 -60 22 -90 66 -90c81.333 0 185.333 122.167 312 366.5s241 538.5 343 882.5
c4.66699 17.333 12.834 28.666 24.501 33.999s51.667 12 120 20s104.833 12 109.5 12c17.333 0 25 -5 23 -15l-54 -217l-155 -678c-21.333 -93.333 -57 -231 -107 -413c137.333 43.333 249.333 119 336 227v-115zM924.002 -89.998
c-100 -34 -178.998 -75.833 -236.998 -125.5s-87 -96.5 -87 -140.5c0 -24.667 8.66699 -45.167 26 -61.5s38.666 -24.5 63.999 -24.5c50 0 93.167 28.667 129.5 86s71.166 146 104.499 266zM1351 1905c-18 -72.667 -55.167 -136.667 -111.5 -192
s-143.5 -115.666 -261.5 -180.999l-61 21c99.333 115.333 167.333 224.666 204 327.999z" />
    <glyph glyph-name="Thorn" unicode="&#xde;" horiz-adv-x="1686" 
d="M1008 1073c52.667 23.333 127.669 34.998 225.002 34.998c122 0 215.333 -37.5 280 -112.5s97 -179.5 97 -313.5c0 -117.333 -44.333 -219.333 -133 -306s-192.667 -130 -312 -130c-53.333 0 -97.333 9.66699 -132 29s-52 43 -52 71c0 22 11.333 51.333 34 88
s42.667 55 60 55c22 0 37 -25.667 45 -77c8 -58.667 27.333 -88 58 -88c42 0 78.667 47.833 110 143.5s47 191.834 47 288.501c0 104 -14.833 173.333 -44.5 208s-74.834 52 -135.501 52c-53.333 0 -106 -11 -158 -33l-26 -266c-24 -246 -96.333 -430 -217 -552
s-262 -183 -424 -183c-96.667 0 -169.334 23.167 -218.001 69.5s-73 97.5 -73 153.5c0 32.667 28.5 66.667 85.5 102s100.167 53 129.5 53c20.667 0 31 -12.667 31 -38c0 -6.66699 -2.83301 -29.334 -8.5 -68.001s-8.5 -62 -8.5 -70c0 -39.333 9.66699 -70.666 29 -93.999
s45.333 -35 78 -35c72 0 134.5 43.833 187.5 131.5s88.833 208.5 107.5 362.5l45 375c16 133.333 51.167 240.333 105.5 321s144.833 144.334 271.5 191.001l59 -56c-36 -27.333 -67.333 -70.833 -94 -130.5s-43 -118.5 -49 -176.5z" />
    <glyph glyph-name="germandbls" unicode="&#xdf;" horiz-adv-x="1237" 
d="M408 1264c219.333 107.333 371.332 160.998 455.999 160.998c57.333 0 105.166 -20.833 143.499 -62.5s57.5 -93.834 57.5 -156.501c0 -71.333 -24.5 -136.666 -73.5 -195.999s-125.5 -123.666 -229.5 -192.999c198 -40 297 -147.667 297 -323
c0 -120 -52.667 -236.167 -158 -348.5s-214 -168.5 -326 -168.5c-94 0 -165.667 39.667 -215 119c-39.333 -216 -65.666 -401.667 -78.999 -557c-74 -21.333 -157.333 -39 -250 -53c16.667 160 58.334 450.667 125.001 872l-133 -137h-23v90l188 203l50 225
c7.33301 34.667 27 104.834 59 210.501s69 210.5 111 314.5zM486.999 714.998c141.333 106.667 240.167 191.168 296.5 253.501s84.5 126.5 84.5 192.5c0 43.333 -10.5 78.166 -31.5 104.499s-48.5 39.5 -82.5 39.5c-68.667 0 -120.5 -39.667 -155.5 -119
s-72.167 -236.333 -111.5 -471zM362 118.999c54.667 53.333 91.001 87.499 109.001 102.499s33 22.5 45 22.5c23.333 0 37 -24 41 -72c0 -74 24 -111 72 -111s92 32 132 96s60 135.333 60 214c0 88 -21.333 159.167 -64 213.5s-98.334 81.5 -167.001 81.5
c-21.333 0 -38.833 -4.16699 -52.5 -12.5s-40.5 -28.166 -80.5 -59.499z" />
    <glyph glyph-name="agrave" unicode="&#xe0;" 
d="M1090 221c-106.667 -101.333 -182.999 -167.335 -228.999 -198.002s-90 -46 -132 -46c-105.333 0 -155 93 -149 279c-66.667 -95.333 -128.167 -165.666 -184.5 -210.999s-114.5 -68 -174.5 -68c-58.667 0 -108.5 27.5 -149.5 82.5s-61.5 122.5 -61.5 202.5
c0 100 27.5 195.333 82.5 286s125.5 164 211.5 220s162 84 228 84c83.333 0 141.666 -38.333 174.999 -115l204 113h56l-88 -293c-45.333 -147.333 -68 -248.333 -68 -303c0 -57.333 20.333 -86 61 -86c26 0 54.667 13.833 86 41.5s75.333 69.834 132 126.501v-115z
M358.001 165.998c66.667 0 129.501 56.832 188.501 170.499s88.5 218.5 88.5 314.5c0 37.333 -8.33301 66.5 -25 87.5s-39 31.5 -67 31.5c-66.667 0 -129.834 -56.667 -189.501 -170s-89.5 -217.666 -89.5 -312.999c0 -36 8.83301 -65.167 26.5 -87.5
s40.167 -33.5 67.5 -33.5zM606.002 974.997l-47 -26.999c-154 91.333 -266 208 -336 350l231 39c17.333 -114.667 68 -235.334 152 -362.001z" />
    <glyph glyph-name="aacute" unicode="&#xe1;" 
d="M1090 221c-106.667 -101.333 -182.999 -167.335 -228.999 -198.002s-90 -46 -132 -46c-105.333 0 -155 93 -149 279c-66.667 -95.333 -128.167 -165.666 -184.5 -210.999s-114.5 -68 -174.5 -68c-58.667 0 -108.5 27.5 -149.5 82.5s-61.5 122.5 -61.5 202.5
c0 100 27.5 195.333 82.5 286s125.5 164 211.5 220s162 84 228 84c83.333 0 141.666 -38.333 174.999 -115l204 113h56l-88 -293c-45.333 -147.333 -68 -248.333 -68 -303c0 -57.333 20.333 -86 61 -86c26 0 54.667 13.833 86 41.5s75.333 69.834 132 126.501v-115z
M358.001 165.998c66.667 0 129.501 56.832 188.501 170.499s88.5 218.5 88.5 314.5c0 37.333 -8.33301 66.5 -25 87.5s-39 31.5 -67 31.5c-66.667 0 -129.834 -56.667 -189.501 -170s-89.5 -217.666 -89.5 -312.999c0 -36 8.83301 -65.167 26.5 -87.5
s40.167 -33.5 67.5 -33.5zM995.002 1329c-18 -72.667 -55.167 -136.667 -111.5 -192s-143.5 -115.666 -261.5 -180.999l-61 21c99.333 115.333 167.333 224.666 204 327.999z" />
    <glyph glyph-name="acircumflex" unicode="&#xe2;" 
d="M1090 221c-106.667 -101.333 -182.999 -167.335 -228.999 -198.002s-90 -46 -132 -46c-105.333 0 -155 93 -149 279c-66.667 -95.333 -128.167 -165.666 -184.5 -210.999s-114.5 -68 -174.5 -68c-58.667 0 -108.5 27.5 -149.5 82.5s-61.5 122.5 -61.5 202.5
c0 100 27.5 195.333 82.5 286s125.5 164 211.5 220s162 84 228 84c83.333 0 141.666 -38.333 174.999 -115l204 113h56l-88 -293c-45.333 -147.333 -68 -248.333 -68 -303c0 -57.333 20.333 -86 61 -86c26 0 54.667 13.833 86 41.5s75.333 69.834 132 126.501v-115z
M358.001 165.998c66.667 0 129.501 56.832 188.501 170.499s88.5 218.5 88.5 314.5c0 37.333 -8.33301 66.5 -25 87.5s-39 31.5 -67 31.5c-66.667 0 -129.834 -56.667 -189.501 -170s-89.5 -217.666 -89.5 -312.999c0 -36 8.83301 -65.167 26.5 -87.5
s40.167 -33.5 67.5 -33.5zM908.002 992.997l-8 -39.002c-99.333 24 -184 102 -254 234c-58 -66.667 -111.833 -116.167 -161.5 -148.5s-118.167 -62.166 -205.5 -89.499l10 49c122.667 86 226 197.333 310 334l215 39c0 -104.667 5.66699 -182.167 17 -232.5
s37 -99.166 77 -146.499z" />
    <glyph glyph-name="atilde" unicode="&#xe3;" 
d="M1090 221c-106.667 -101.333 -182.999 -167.335 -228.999 -198.002s-90 -46 -132 -46c-105.333 0 -155 93 -149 279c-66.667 -95.333 -128.167 -165.666 -184.5 -210.999s-114.5 -68 -174.5 -68c-58.667 0 -108.5 27.5 -149.5 82.5s-61.5 122.5 -61.5 202.5
c0 100 27.5 195.333 82.5 286s125.5 164 211.5 220s162 84 228 84c83.333 0 141.666 -38.333 174.999 -115l204 113h56l-88 -293c-45.333 -147.333 -68 -248.333 -68 -303c0 -57.333 20.333 -86 61 -86c26 0 54.667 13.833 86 41.5s75.333 69.834 132 126.501v-115z
M358.001 165.998c66.667 0 129.501 56.832 188.501 170.499s88.5 218.5 88.5 314.5c0 37.333 -8.33301 66.5 -25 87.5s-39 31.5 -67 31.5c-66.667 0 -129.834 -56.667 -189.501 -170s-89.5 -217.666 -89.5 -312.999c0 -36 8.83301 -65.167 26.5 -87.5
s40.167 -33.5 67.5 -33.5zM957.002 1180c-32 -66 -65.833 -114.333 -101.5 -145s-79.167 -46 -130.5 -46c-40.667 0 -87.667 14.667 -141 44s-96.333 44 -129 44c-48 0 -84.667 -23.667 -110 -71l-56 34c52 130 129.333 195 232 195c43.333 0 93 -14 149 -42s95 -42 117 -42
c49.333 0 87 26 113 78z" />
    <glyph glyph-name="adieresis" unicode="&#xe4;" 
d="M1090 221c-106.667 -101.333 -182.999 -167.335 -228.999 -198.002s-90 -46 -132 -46c-105.333 0 -155 93 -149 279c-66.667 -95.333 -128.167 -165.666 -184.5 -210.999s-114.5 -68 -174.5 -68c-58.667 0 -108.5 27.5 -149.5 82.5s-61.5 122.5 -61.5 202.5
c0 100 27.5 195.333 82.5 286s125.5 164 211.5 220s162 84 228 84c83.333 0 141.666 -38.333 174.999 -115l204 113h56l-88 -293c-45.333 -147.333 -68 -248.333 -68 -303c0 -57.333 20.333 -86 61 -86c26 0 54.667 13.833 86 41.5s75.333 69.834 132 126.501v-115z
M358.001 165.998c66.667 0 129.501 56.832 188.501 170.499s88.5 218.5 88.5 314.5c0 37.333 -8.33301 66.5 -25 87.5s-39 31.5 -67 31.5c-66.667 0 -129.834 -56.667 -189.501 -170s-89.5 -217.666 -89.5 -312.999c0 -36 8.83301 -65.167 26.5 -87.5
s40.167 -33.5 67.5 -33.5zM948.002 1182c-8.66699 -108 -50.334 -162 -125.001 -162c-36 0 -87 20.333 -153 61c42.667 69.333 73.334 131 92.001 185c72.667 -45.333 134.667 -73.333 186 -84zM590.002 1186c-12.667 -109.333 -57.001 -164 -133.001 -164
c-42 0 -90 20.333 -144 61c40 64.667 68.667 125.667 86 183c80.667 -50 144.334 -76.667 191.001 -80z" />
    <glyph glyph-name="aring" unicode="&#xe5;" 
d="M1090 221c-106.667 -101.333 -182.999 -167.335 -228.999 -198.002s-90 -46 -132 -46c-105.333 0 -155 93 -149 279c-66.667 -95.333 -128.167 -165.666 -184.5 -210.999s-114.5 -68 -174.5 -68c-58.667 0 -108.5 27.5 -149.5 82.5s-61.5 122.5 -61.5 202.5
c0 100 27.5 195.333 82.5 286s125.5 164 211.5 220s162 84 228 84c83.333 0 141.666 -38.333 174.999 -115l204 113h56l-88 -293c-45.333 -147.333 -68 -248.333 -68 -303c0 -57.333 20.333 -86 61 -86c26 0 54.667 13.833 86 41.5s75.333 69.834 132 126.501v-115z
M358.001 165.998c66.667 0 129.501 56.832 188.501 170.499s88.5 218.5 88.5 314.5c0 37.333 -8.33301 66.5 -25 87.5s-39 31.5 -67 31.5c-66.667 0 -129.834 -56.667 -189.501 -170s-89.5 -217.666 -89.5 -312.999c0 -36 8.83301 -65.167 26.5 -87.5
s40.167 -33.5 67.5 -33.5zM673.002 1333c54 0 99.667 -18 137 -54s56 -80 56 -132s-18.5 -96.5 -55.5 -133.5s-81.167 -55.5 -132.5 -55.5c-52 0 -96.5 18.5 -133.5 55.5s-55.5 81.5 -55.5 133.5c0 50 18.333 93.5 55 130.5s79.667 55.5 129 55.5zM678.002 1032
c31.333 0 58.5 11.333 81.5 34s34.5 49.667 34.5 81c0 30.667 -11.5 57.5 -34.5 80.5s-49.5 34.5 -79.5 34.5c-32 0 -59.5 -11.333 -82.5 -34s-34.5 -49.667 -34.5 -81c0 -32 11.167 -59.167 33.5 -81.5s49.5 -33.5 81.5 -33.5z" />
    <glyph glyph-name="ae" unicode="&#xe6;" horiz-adv-x="1237" 
d="M1260 221c-83.333 -83.333 -160.169 -144.833 -230.502 -184.5s-143.166 -59.5 -218.499 -59.5c-76 0 -144 26.333 -204 79s-89.667 129.667 -89 231c-121.333 -206.667 -245.666 -310 -372.999 -310c-56.667 0 -104.834 26.167 -144.501 78.5s-59.5 116.5 -59.5 192.5
c0 94.667 26.5 189.167 79.5 283.5s120.667 171.333 203 231s157.5 89.5 225.5 89.5c76 0 128.333 -48.333 157 -145l213 145h45l-28 -98c74.667 65.333 146.334 98 215.001 98c42 0 77 -15.167 105 -45.5s42 -68.5 42 -114.5c0 -73.333 -37 -142.833 -111 -208.5
s-186.333 -113.5 -337 -143.5c24 -128.667 95 -193 213 -193c48.667 0 93.5 13 134.5 39s95.167 76 162.5 150v-115zM286.997 164c65.333 0 123.333 55.332 174 165.999s76 214.334 76 311.001c0 78 -26 117 -78 117c-58 0 -117.333 -54.167 -178 -162.5
s-91 -213.166 -91 -314.499c0 -34.667 9 -62.834 27 -84.501s41.333 -32.5 70 -32.5zM749.997 400.999c88 18 153.333 54.999 196 110.999s64 110.667 64 164c0 22.667 -5.33301 41.334 -16 56.001s-24.667 22 -42 22c-92 0 -159.333 -117.667 -202 -353z" />
    <glyph glyph-name="ccedilla" unicode="&#xe7;" horiz-adv-x="748" 
d="M770 221c-120 -116.667 -224.333 -189.671 -313 -219.004l-60 -70c88.667 -16 133 -65 133 -147c0 -36 -10.333 -68.5 -31 -97.5s-53.334 -55.5 -98.001 -79.5s-89.667 -39 -135 -45s-102 -9 -170 -9l15 79c138.667 0 208 40.333 208 121
c0 58.667 -36 89.334 -108 92.001c56.667 56 97.667 100.667 123 134c-4 -2 -11 -3 -21 -3c-86.667 0 -158.167 28.167 -214.5 84.5s-84.5 127.833 -84.5 214.5c0 142 51.833 273.167 155.5 393.5s215.834 180.5 336.501 180.5c59.333 0 107.666 -16.5 144.999 -49.5
s56 -75.833 56 -128.5c0 -18.667 -3.5 -32.667 -10.5 -42s-20.167 -18.666 -39.5 -27.999l-116 -55c-14 -6.66699 -24.333 -10 -31 -10c-9.33301 0 -14 6.66699 -14 20c0 5.33301 2 22.833 6 52.5s6 47.834 6 54.501c0 29.333 -6.16699 53 -18.5 71s-28.833 27 -49.5 27
c-48.667 0 -93.167 -36 -133.5 -108s-60.5 -154 -60.5 -246c0 -79.333 19 -142.666 57 -189.999s88.667 -71 152 -71c54 0 104.833 15.5 152.5 46.5s101.834 78.5 162.501 142.5v-115z" />
    <glyph glyph-name="egrave" unicode="&#xe8;" horiz-adv-x="748" 
d="M770 221c-84.667 -83.333 -160.668 -144.832 -228.001 -184.499s-141.666 -59.5 -222.999 -59.5c-90.667 0 -163.834 29 -219.501 87s-83.5 134.333 -83.5 229c0 141.333 49 269.166 147 383.499s206.667 171.5 326 171.5c62 0 111.667 -16 149 -48s56 -74 56 -126
c0 -138 -146.667 -250 -440 -336c26.667 -130 96.334 -195 209.001 -195c44 0 86 11.833 126 35.5s100.333 76.167 181 157.5v-115zM245.999 406.001c170.667 48 256 136.667 256 266c0 64 -23.333 96 -70 96c-44 0 -86 -33.5 -126 -100.5s-60 -154.167 -60 -261.5z
M445.999 975.001l-47 -26.999c-154 91.333 -266 208 -336 350l231 39c17.333 -114.667 68 -235.334 152 -362.001z" />
    <glyph glyph-name="eacute" unicode="&#xe9;" horiz-adv-x="748" 
d="M770 221c-84.667 -83.333 -160.668 -144.832 -228.001 -184.499s-141.666 -59.5 -222.999 -59.5c-90.667 0 -163.834 29 -219.501 87s-83.5 134.333 -83.5 229c0 141.333 49 269.166 147 383.499s206.667 171.5 326 171.5c62 0 111.667 -16 149 -48s56 -74 56 -126
c0 -138 -146.667 -250 -440 -336c26.667 -130 96.334 -195 209.001 -195c44 0 86 11.833 126 35.5s100.333 76.167 181 157.5v-115zM245.999 406.001c170.667 48 256 136.667 256 266c0 64 -23.333 96 -70 96c-44 0 -86 -33.5 -126 -100.5s-60 -154.167 -60 -261.5z
M834.999 1329c-18 -72.667 -55.167 -136.667 -111.5 -192s-143.5 -115.666 -261.5 -180.999l-61 21c99.333 115.333 167.333 224.666 204 327.999z" />
    <glyph glyph-name="ecircumflex" unicode="&#xea;" horiz-adv-x="748" 
d="M770 221c-84.667 -83.333 -160.668 -144.832 -228.001 -184.499s-141.666 -59.5 -222.999 -59.5c-90.667 0 -163.834 29 -219.501 87s-83.5 134.333 -83.5 229c0 141.333 49 269.166 147 383.499s206.667 171.5 326 171.5c62 0 111.667 -16 149 -48s56 -74 56 -126
c0 -138 -146.667 -250 -440 -336c26.667 -130 96.334 -195 209.001 -195c44 0 86 11.833 126 35.5s100.333 76.167 181 157.5v-115zM245.999 406.001c170.667 48 256 136.667 256 266c0 64 -23.333 96 -70 96c-44 0 -86 -33.5 -126 -100.5s-60 -154.167 -60 -261.5z
M747.999 993.001l-8 -39.002c-99.333 24 -184 102 -254 234c-58 -66.667 -111.833 -116.167 -161.5 -148.5s-118.167 -62.166 -205.5 -89.499l10 49c122.667 86 226 197.333 310 334l215 39c0 -104.667 5.66699 -182.167 17 -232.5s37 -99.166 77 -146.499z" />
    <glyph glyph-name="edieresis" unicode="&#xeb;" horiz-adv-x="748" 
d="M770 221c-84.667 -83.333 -160.668 -144.832 -228.001 -184.499s-141.666 -59.5 -222.999 -59.5c-90.667 0 -163.834 29 -219.501 87s-83.5 134.333 -83.5 229c0 141.333 49 269.166 147 383.499s206.667 171.5 326 171.5c62 0 111.667 -16 149 -48s56 -74 56 -126
c0 -138 -146.667 -250 -440 -336c26.667 -130 96.334 -195 209.001 -195c44 0 86 11.833 126 35.5s100.333 76.167 181 157.5v-115zM245.999 406.001c170.667 48 256 136.667 256 266c0 64 -23.333 96 -70 96c-44 0 -86 -33.5 -126 -100.5s-60 -154.167 -60 -261.5z
M788.999 1182c-8.66699 -108 -50.334 -162 -125.001 -162c-36 0 -87 20.333 -153 61c42.667 69.333 73.334 131 92.001 185c72.667 -45.333 134.667 -73.333 186 -84zM430.999 1186c-12.667 -109.333 -57.001 -164 -133.001 -164c-42 0 -90 20.333 -144 61
c40 64.667 68.667 125.667 86 183c80.667 -50 144.334 -76.667 191.001 -80z" />
    <glyph glyph-name="igrave" unicode="&#xec;" horiz-adv-x="492" 
d="M514 221c-159.333 -164 -276.001 -246.001 -350.001 -246.001c-42.667 0 -78.667 21.833 -108 65.5s-44 98.5 -44 164.5c0 142 48 338.667 144 590l254 53h12l-100 -313c-41.333 -129.333 -62 -221.666 -62 -276.999c0 -22 4.83301 -39.833 14.5 -53.5
s21.834 -20.5 36.501 -20.5c26 0 52.167 9.66699 78.5 29s67.833 60.333 124.5 123v-115zM319.999 974.999l-47 -26.999c-154 91.333 -266 208 -336 350l231 39c17.333 -114.667 68 -235.334 152 -362.001z" />
    <glyph glyph-name="iacute" unicode="&#xed;" horiz-adv-x="492" 
d="M514 221c-159.333 -164 -276.001 -246.001 -350.001 -246.001c-42.667 0 -78.667 21.833 -108 65.5s-44 98.5 -44 164.5c0 142 48 338.667 144 590l254 53h12l-100 -313c-41.333 -129.333 -62 -221.666 -62 -276.999c0 -22 4.83301 -39.833 14.5 -53.5
s21.834 -20.5 36.501 -20.5c26 0 52.167 9.66699 78.5 29s67.833 60.333 124.5 123v-115zM707.999 1329c-18 -72.667 -55.167 -136.667 -111.5 -192s-143.5 -115.666 -261.5 -180.999l-61 21c99.333 115.333 167.333 224.666 204 327.999z" />
    <glyph glyph-name="icircumflex" unicode="&#xee;" horiz-adv-x="492" 
d="M514 221c-159.333 -164 -276.001 -246.001 -350.001 -246.001c-42.667 0 -78.667 21.833 -108 65.5s-44 98.5 -44 164.5c0 142 48 338.667 144 590l254 53h12l-100 -313c-41.333 -129.333 -62 -221.666 -62 -276.999c0 -22 4.83301 -39.833 14.5 -53.5
s21.834 -20.5 36.501 -20.5c26 0 52.167 9.66699 78.5 29s67.833 60.333 124.5 123v-115zM620.999 992.999l-8 -39.002c-99.333 24 -184 102 -254 234c-58 -66.667 -111.833 -116.167 -161.5 -148.5s-118.167 -62.166 -205.5 -89.499l10 49c122.667 86 226 197.333 310 334
l215 39c0 -104.667 5.66699 -182.167 17 -232.5s37 -99.166 77 -146.499z" />
    <glyph glyph-name="idieresis" unicode="&#xef;" horiz-adv-x="492" 
d="M514 221c-159.333 -164 -276.001 -246.001 -350.001 -246.001c-42.667 0 -78.667 21.833 -108 65.5s-44 98.5 -44 164.5c0 142 48 338.667 144 590l254 53h12l-100 -313c-41.333 -129.333 -62 -221.666 -62 -276.999c0 -22 4.83301 -39.833 14.5 -53.5
s21.834 -20.5 36.501 -20.5c26 0 52.167 9.66699 78.5 29s67.833 60.333 124.5 123v-115zM681.999 1182c-8.66699 -108 -50.334 -162 -125.001 -162c-36 0 -87 20.333 -153 61c42.667 69.333 73.334 131 92.001 185c72.667 -45.333 134.667 -73.333 186 -84zM323.999 1186
c-12.667 -109.333 -57.001 -164 -133.001 -164c-42 0 -90 20.333 -144 61c40 64.667 68.667 125.667 86 183c80.667 -50 144.334 -76.667 191.001 -80z" />
    <glyph glyph-name="eth" unicode="&#xf0;" horiz-adv-x="897" 
d="M797 1255l-150 -99.999c54.667 -124.667 82 -256.334 82 -395.001c0 -200.667 -46.5 -381.667 -139.5 -543s-200.833 -242 -323.5 -242c-72 0 -132.667 29.667 -182 89s-74 133 -74 221c0 150 53.667 281.667 161 395s214.333 170 321 170c34 0 69.333 -7.66699 106 -23
c-12 85.333 -39.333 166 -82 242l-145 -96l-21 39l144 96c-43.333 75.333 -99.333 139.333 -168 192l133 130c70 -74 126 -150.667 168 -230l143 94zM391 158.001c64 0 116.834 52.333 158.501 157s62.5 203.667 62.5 297c0 50.667 -10.833 90.667 -32.5 120
s-50.834 44 -87.501 44c-70 0 -125.5 -51.833 -166.5 -155.5s-61.5 -204.167 -61.5 -301.5c0 -107.333 42.333 -161 127 -161z" />
    <glyph glyph-name="ntilde" unicode="&#xf1;" horiz-adv-x="981" 
d="M1004 221c-154 -162.667 -286 -243.999 -396 -243.999c-44.667 0 -80.667 15.667 -108 47s-41 73.333 -41 126c0 71.333 29.333 180.333 88 327c31.333 78.667 47 128.667 47 150s-8.33301 32 -25 32c-9.33301 0 -21.666 -4.66699 -36.999 -14
c-14 -9.33301 -30.333 -22.333 -49 -39c-16.667 -15.333 -35.334 -34 -56.001 -56c-18 -18.667 -37.333 -40 -58 -64l-56 -65c-24.667 -30 -40 -61.667 -46 -95c-10 -56.667 -16.667 -108.667 -20 -156c-2 -35.333 -3 -83 -3 -143l-221 -52c-7.33301 90 -11 157 -11 201
c0 107.333 12.5 209 37.5 305s65.167 204 120.5 324l244 47c-51.333 -138 -85 -246.667 -101 -326c109.333 122 196.166 206.5 260.499 253.5s121.5 70.5 171.5 70.5c34 0 62.333 -12.833 85 -38.5s34 -57.834 34 -96.501c0 -64 -28.667 -169.333 -86 -316
c-39.333 -100.667 -59 -166 -59 -196c0 -40 16.333 -60 49 -60c48.667 0 127.334 64.333 236.001 193v-115zM914 1180c-32 -66 -65.833 -114.333 -101.5 -145s-79.167 -46 -130.5 -46c-40.667 0 -87.667 14.667 -141 44s-96.333 44 -129 44c-48 0 -84.667 -23.667 -110 -71
l-56 34c52 130 129.333 195 232 195c43.333 0 93 -14 149 -42s95 -42 117 -42c49.333 0 87 26 113 78z" />
    <glyph glyph-name="ograve" unicode="&#xf2;" horiz-adv-x="897" 
d="M920 221c-34 -30 -67 -51.167 -99 -63.5s-57.333 -18.5 -76 -18.5c-48 0 -95.667 18.667 -143 56c-96 -145.333 -206 -218 -330 -218c-77.333 0 -140 29 -188 87s-72 135 -72 231c0 152 54 282.5 162 391.5s237 163.5 387 163.5c56.667 0 98.167 -6.16699 124.5 -18.5
s42.5 -26.833 48.5 -43.5s9 -37.667 9 -63c0 -124.667 -34 -277.667 -102 -459c34 -31.333 69.667 -47 107 -47c44.667 0 102 39 172 117v-115zM590 780c-10 4 -24.332 5.99805 -42.999 5.99805c-86.667 0 -154.5 -45.333 -203.5 -136s-73.5 -196.667 -73.5 -318
c0 -67.333 10.667 -119.666 32 -156.999s51 -56 89 -56c47.333 0 98.666 43.667 153.999 131c-62.667 78.667 -94 163.334 -94 254.001c0 106.667 46.333 198.667 139 276zM522.001 974.998l-47 -26.999c-154 91.333 -266 208 -336 350l231 39
c17.333 -114.667 68 -235.334 152 -362.001z" />
    <glyph glyph-name="oacute" unicode="&#xf3;" horiz-adv-x="897" 
d="M920 221c-34 -30 -67 -51.167 -99 -63.5s-57.333 -18.5 -76 -18.5c-48 0 -95.667 18.667 -143 56c-96 -145.333 -206 -218 -330 -218c-77.333 0 -140 29 -188 87s-72 135 -72 231c0 152 54 282.5 162 391.5s237 163.5 387 163.5c56.667 0 98.167 -6.16699 124.5 -18.5
s42.5 -26.833 48.5 -43.5s9 -37.667 9 -63c0 -124.667 -34 -277.667 -102 -459c34 -31.333 69.667 -47 107 -47c44.667 0 102 39 172 117v-115zM590 780c-10 4 -24.332 5.99805 -42.999 5.99805c-86.667 0 -154.5 -45.333 -203.5 -136s-73.5 -196.667 -73.5 -318
c0 -67.333 10.667 -119.666 32 -156.999s51 -56 89 -56c47.333 0 98.666 43.667 153.999 131c-62.667 78.667 -94 163.334 -94 254.001c0 106.667 46.333 198.667 139 276zM911.001 1329c-18 -72.667 -55.167 -136.667 -111.5 -192s-143.5 -115.666 -261.5 -180.999l-61 21
c99.333 115.333 167.333 224.666 204 327.999z" />
    <glyph glyph-name="ocircumflex" unicode="&#xf4;" horiz-adv-x="897" 
d="M920 221c-34 -30 -67 -51.167 -99 -63.5s-57.333 -18.5 -76 -18.5c-48 0 -95.667 18.667 -143 56c-96 -145.333 -206 -218 -330 -218c-77.333 0 -140 29 -188 87s-72 135 -72 231c0 152 54 282.5 162 391.5s237 163.5 387 163.5c56.667 0 98.167 -6.16699 124.5 -18.5
s42.5 -26.833 48.5 -43.5s9 -37.667 9 -63c0 -124.667 -34 -277.667 -102 -459c34 -31.333 69.667 -47 107 -47c44.667 0 102 39 172 117v-115zM590 780c-10 4 -24.332 5.99805 -42.999 5.99805c-86.667 0 -154.5 -45.333 -203.5 -136s-73.5 -196.667 -73.5 -318
c0 -67.333 10.667 -119.666 32 -156.999s51 -56 89 -56c47.333 0 98.666 43.667 153.999 131c-62.667 78.667 -94 163.334 -94 254.001c0 106.667 46.333 198.667 139 276zM793.001 992.998l-8 -39.002c-99.333 24 -184 102 -254 234
c-58 -66.667 -111.833 -116.167 -161.5 -148.5s-118.167 -62.166 -205.5 -89.499l10 49c122.667 86 226 197.333 310 334l215 39c0 -104.667 5.66699 -182.167 17 -232.5s37 -99.166 77 -146.499z" />
    <glyph glyph-name="otilde" unicode="&#xf5;" horiz-adv-x="897" 
d="M920 221c-34 -30 -67 -51.167 -99 -63.5s-57.333 -18.5 -76 -18.5c-48 0 -95.667 18.667 -143 56c-96 -145.333 -206 -218 -330 -218c-77.333 0 -140 29 -188 87s-72 135 -72 231c0 152 54 282.5 162 391.5s237 163.5 387 163.5c56.667 0 98.167 -6.16699 124.5 -18.5
s42.5 -26.833 48.5 -43.5s9 -37.667 9 -63c0 -124.667 -34 -277.667 -102 -459c34 -31.333 69.667 -47 107 -47c44.667 0 102 39 172 117v-115zM590 780c-10 4 -24.332 5.99805 -42.999 5.99805c-86.667 0 -154.5 -45.333 -203.5 -136s-73.5 -196.667 -73.5 -318
c0 -67.333 10.667 -119.666 32 -156.999s51 -56 89 -56c47.333 0 98.666 43.667 153.999 131c-62.667 78.667 -94 163.334 -94 254.001c0 106.667 46.333 198.667 139 276zM842.001 1180c-32 -66 -65.833 -114.333 -101.5 -145s-79.167 -46 -130.5 -46
c-40.667 0 -87.667 14.667 -141 44s-96.333 44 -129 44c-48 0 -84.667 -23.667 -110 -71l-56 34c52 130 129.333 195 232 195c43.333 0 93 -14 149 -42s95 -42 117 -42c49.333 0 87 26 113 78z" />
    <glyph glyph-name="odieresis" unicode="&#xf6;" horiz-adv-x="897" 
d="M920 221c-34 -30 -67 -51.167 -99 -63.5s-57.333 -18.5 -76 -18.5c-48 0 -95.667 18.667 -143 56c-96 -145.333 -206 -218 -330 -218c-77.333 0 -140 29 -188 87s-72 135 -72 231c0 152 54 282.5 162 391.5s237 163.5 387 163.5c56.667 0 98.167 -6.16699 124.5 -18.5
s42.5 -26.833 48.5 -43.5s9 -37.667 9 -63c0 -124.667 -34 -277.667 -102 -459c34 -31.333 69.667 -47 107 -47c44.667 0 102 39 172 117v-115zM590 780c-10 4 -24.332 5.99805 -42.999 5.99805c-86.667 0 -154.5 -45.333 -203.5 -136s-73.5 -196.667 -73.5 -318
c0 -67.333 10.667 -119.666 32 -156.999s51 -56 89 -56c47.333 0 98.666 43.667 153.999 131c-62.667 78.667 -94 163.334 -94 254.001c0 106.667 46.333 198.667 139 276zM864.001 1182c-8.66699 -108 -50.334 -162 -125.001 -162c-36 0 -87 20.333 -153 61
c42.667 69.333 73.334 131 92.001 185c72.667 -45.333 134.667 -73.333 186 -84zM506.001 1186c-12.667 -109.333 -57.001 -164 -133.001 -164c-42 0 -90 20.333 -144 61c40 64.667 68.667 125.667 86 183c80.667 -50 144.334 -76.667 191.001 -80z" />
    <glyph glyph-name="divide" unicode="&#xf7;" horiz-adv-x="1368" 
d="M684 1059c27.333 0 50.5 -9.50098 69.5 -28.501s28.5 -42.167 28.5 -69.5s-9.5 -50.666 -28.5 -69.999s-42.167 -29 -69.5 -29s-50.5 10 -69.5 30s-28.5 44.333 -28.5 73c0 25.333 9.66699 47.333 29 66s42.333 28 69 28zM1233 466.999h-1098v158h1098v-158zM684 228.999
c27.333 0 50.5 -9.5 69.5 -28.5s28.5 -42.167 28.5 -69.5c0 -26.667 -9.5 -49.667 -28.5 -69s-42.167 -29 -69.5 -29s-50.833 9.66699 -70.5 29s-29.5 42.333 -29.5 69c0 27.333 9.66699 50.5 29 69.5s43 28.5 71 28.5z" />
    <glyph glyph-name="oslash" unicode="&#xf8;" horiz-adv-x="897" 
d="M920 221c-34 -30 -66.999 -51.167 -98.999 -63.5s-57.333 -18.5 -76 -18.5c-48 0 -95.667 18.667 -143 56c-94 -145.333 -206 -218 -336 -218c-41.333 0 -81 10.333 -119 31l-88 -114l-36 24l86 117c-36.667 34.667 -63 70.667 -79 108s-24 85.333 -24 144
c0 162.667 55.667 297.167 167 403.5s234.666 159.5 369.999 159.5c56.667 0 107.667 -9 153 -27l66 86l35 -26l-66 -90c5.33301 -28 8 -50 8 -66c0 -130 -32.667 -283.667 -98 -461c34 -31.333 69.667 -47 107 -47c44.667 0 102 39 172 117v-115zM584.001 780
c-10 4 -24.332 6 -42.999 6c-86 0 -154 -46.833 -204 -140.5s-75 -203.167 -75 -328.5c0 -9.33301 2.66699 -31 8 -65l176 235c0 60 8.66699 111.667 26 155s54.666 89.333 111.999 138zM541.002 246c-44.667 55.333 -72.667 114 -84 176l-172 -227
c28.667 -53.333 62.667 -80 102 -80c48.667 0 100 43.667 154 131z" />
    <glyph glyph-name="ugrave" unicode="&#xf9;" 
d="M1090 221c-88 -83.333 -161.667 -144.833 -221 -184.5s-112.666 -59.5 -159.999 -59.5c-52.667 0 -93.167 21 -121.5 63s-42.5 99 -42.5 171c-73.333 -80.667 -139 -140.167 -197 -178.5s-114.667 -57.5 -170 -57.5c-50.667 0 -91.334 21 -122.001 63s-46 99 -46 171
c0 138.667 46.667 334 140 586l266 53c-109.333 -319.333 -164 -524.333 -164 -615c0 -64 24 -96 72 -96c34.667 0 77.667 28.167 129 84.5s83.333 105.5 96 147.5l131 426l272 55c-62.667 -200.667 -105.667 -341.667 -129 -423s-35 -138.333 -35 -171
c0 -62.667 21.333 -94 64 -94c34.667 0 86 31.667 154 95l84 79v-115zM606 975l-47 -26.999c-154 91.333 -266 208 -336 350l231 39c17.333 -114.667 68 -235.334 152 -362.001z" />
    <glyph glyph-name="uacute" unicode="&#xfa;" 
d="M1090 221c-88 -83.333 -161.667 -144.833 -221 -184.5s-112.666 -59.5 -159.999 -59.5c-52.667 0 -93.167 21 -121.5 63s-42.5 99 -42.5 171c-73.333 -80.667 -139 -140.167 -197 -178.5s-114.667 -57.5 -170 -57.5c-50.667 0 -91.334 21 -122.001 63s-46 99 -46 171
c0 138.667 46.667 334 140 586l266 53c-109.333 -319.333 -164 -524.333 -164 -615c0 -64 24 -96 72 -96c34.667 0 77.667 28.167 129 84.5s83.333 105.5 96 147.5l131 426l272 55c-62.667 -200.667 -105.667 -341.667 -129 -423s-35 -138.333 -35 -171
c0 -62.667 21.333 -94 64 -94c34.667 0 86 31.667 154 95l84 79v-115zM995 1329c-18 -72.667 -55.167 -136.667 -111.5 -192s-143.5 -115.666 -261.5 -180.999l-61 21c99.333 115.333 167.333 224.666 204 327.999z" />
    <glyph glyph-name="ucircumflex" unicode="&#xfb;" 
d="M1090 221c-88 -83.333 -161.667 -144.833 -221 -184.5s-112.666 -59.5 -159.999 -59.5c-52.667 0 -93.167 21 -121.5 63s-42.5 99 -42.5 171c-73.333 -80.667 -139 -140.167 -197 -178.5s-114.667 -57.5 -170 -57.5c-50.667 0 -91.334 21 -122.001 63s-46 99 -46 171
c0 138.667 46.667 334 140 586l266 53c-109.333 -319.333 -164 -524.333 -164 -615c0 -64 24 -96 72 -96c34.667 0 77.667 28.167 129 84.5s83.333 105.5 96 147.5l131 426l272 55c-62.667 -200.667 -105.667 -341.667 -129 -423s-35 -138.333 -35 -171
c0 -62.667 21.333 -94 64 -94c34.667 0 86 31.667 154 95l84 79v-115zM877 993l-8 -39.002c-99.333 24 -184 102 -254 234c-58 -66.667 -111.833 -116.167 -161.5 -148.5s-118.167 -62.166 -205.5 -89.499l10 49c122.667 86 226 197.333 310 334l215 39
c0 -104.667 5.66699 -182.167 17 -232.5s37 -99.166 77 -146.499z" />
    <glyph glyph-name="udieresis" unicode="&#xfc;" 
d="M1090 221c-88 -83.333 -161.667 -144.833 -221 -184.5s-112.666 -59.5 -159.999 -59.5c-52.667 0 -93.167 21 -121.5 63s-42.5 99 -42.5 171c-73.333 -80.667 -139 -140.167 -197 -178.5s-114.667 -57.5 -170 -57.5c-50.667 0 -91.334 21 -122.001 63s-46 99 -46 171
c0 138.667 46.667 334 140 586l266 53c-109.333 -319.333 -164 -524.333 -164 -615c0 -64 24 -96 72 -96c34.667 0 77.667 28.167 129 84.5s83.333 105.5 96 147.5l131 426l272 55c-62.667 -200.667 -105.667 -341.667 -129 -423s-35 -138.333 -35 -171
c0 -62.667 21.333 -94 64 -94c34.667 0 86 31.667 154 95l84 79v-115zM948 1182c-8.66699 -108 -50.334 -162 -125.001 -162c-36 0 -87 20.333 -153 61c42.667 69.333 73.334 131 92.001 185c72.667 -45.333 134.667 -73.333 186 -84zM590 1186
c-12.667 -109.333 -57.001 -164 -133.001 -164c-42 0 -90 20.333 -144 61c40 64.667 68.667 125.667 86 183c80.667 -50 144.334 -76.667 191.001 -80z" />
    <glyph glyph-name="yacute" unicode="&#xfd;" 
d="M1090 221c-84.667 -82 -219.999 -166 -405.999 -252c-62 -176 -131.667 -300.5 -209 -373.5s-158 -109.5 -242 -109.5c-42.667 0 -76.834 13 -102.501 39s-38.5 60.667 -38.5 104c0 131.333 120.333 250.333 361 357l61 215c-126 -140.667 -236.667 -211 -332 -211
c-51.333 0 -92.833 21 -124.5 63s-47.5 98 -47.5 168c0 100.667 22 208.667 66 324l96 254l291 51l-125 -297c-57.333 -143.333 -86 -251.333 -86 -324c0 -60 20.333 -90 61 -90c41.333 0 88.5 33.333 141.5 100s97.5 148.667 133.5 246l114 314l273 51l-260 -782
c152.667 70 277.667 159.333 375 268v-115zM424.001 -113c-82 -36.667 -145.167 -77.833 -189.5 -123.5s-66.5 -90.5 -66.5 -134.5c0 -44.667 19 -67 57 -67c74 0 140.333 108.333 199 325zM995.001 1329c-18 -72.667 -55.167 -136.667 -111.5 -192
s-143.5 -115.666 -261.5 -180.999l-61 21c99.333 115.333 167.333 224.666 204 327.999z" />
    <glyph glyph-name="thorn" unicode="&#xfe;" horiz-adv-x="1153" 
d="M522 707c48.667 48.667 90.6689 84.668 126.002 108.001s76.666 35 123.999 35c69.333 0 126 -25.5 170 -76.5s66 -117.167 66 -198.5c0 -149.333 -50 -285.5 -150 -408.5s-209.333 -184.5 -328 -184.5c-56.667 0 -111 21.667 -163 65
c-48 -215.333 -79.667 -385.333 -95 -510c-69.333 -11.333 -150.333 -26.333 -243 -45c21.333 195.333 82.666 514.333 183.999 957c-65.333 -96.667 -128.666 -172.667 -189.999 -228h-23v90c92.667 98.667 166.667 196.167 222 292.5s103.666 235.166 144.999 416.499
l82 360l256 47zM389.002 160.001c28.667 -67.333 68.3311 -101 118.998 -101c64.667 0 122.5 50.5 173.5 151.5s76.5 204.833 76.5 311.5c0 48 -10.5 86.667 -31.5 116s-48.167 44 -81.5 44c-47.333 0 -87.166 -24 -119.499 -72s-60.166 -121.667 -83.499 -221z" />
    <glyph glyph-name="ydieresis" unicode="&#xff;" 
d="M1090 221c-84.667 -82 -219.999 -166 -405.999 -252c-62 -176 -131.667 -300.5 -209 -373.5s-158 -109.5 -242 -109.5c-42.667 0 -76.834 13 -102.501 39s-38.5 60.667 -38.5 104c0 131.333 120.333 250.333 361 357l61 215c-126 -140.667 -236.667 -211 -332 -211
c-51.333 0 -92.833 21 -124.5 63s-47.5 98 -47.5 168c0 100.667 22 208.667 66 324l96 254l291 51l-125 -297c-57.333 -143.333 -86 -251.333 -86 -324c0 -60 20.333 -90 61 -90c41.333 0 88.5 33.333 141.5 100s97.5 148.667 133.5 246l114 314l273 51l-260 -782
c152.667 70 277.667 159.333 375 268v-115zM424.001 -113c-82 -36.667 -145.167 -77.833 -189.5 -123.5s-66.5 -90.5 -66.5 -134.5c0 -44.667 19 -67 57 -67c74 0 140.333 108.333 199 325zM948.001 1182c-8.66699 -108 -50.334 -162 -125.001 -162
c-36 0 -87 20.333 -153 61c42.667 69.333 73.334 131 92.001 185c72.667 -45.333 134.667 -73.333 186 -84zM590.001 1186c-12.667 -109.333 -57.001 -164 -133.001 -164c-42 0 -90 20.333 -144 61c40 64.667 68.667 125.667 86 183c80.667 -50 144.334 -76.667 191.001 -80
z" />
    <glyph glyph-name="dotlessi" unicode="&#x131;" horiz-adv-x="492" 
d="M514 221c-159.333 -164 -276.001 -246.001 -350.001 -246.001c-42.667 0 -78.667 21.833 -108 65.5s-44 98.5 -44 164.5c0 142 48 338.667 144 590l254 53h12l-100 -313c-41.333 -129.333 -62 -221.666 -62 -276.999c0 -22 4.83301 -39.833 14.5 -53.5
s21.834 -20.5 36.501 -20.5c26 0 52.167 9.66699 78.5 29s67.833 60.333 124.5 123v-115z" />
    <glyph glyph-name="Lslash" unicode="&#x141;" horiz-adv-x="1300" 
d="M1323 221c-158 -160.667 -319.669 -240.998 -485.002 -240.998c-48 0 -94.167 6.16699 -138.5 18.5s-98.333 33.166 -162 62.499s-119.834 50.666 -168.501 63.999c-90 -98.667 -171.333 -148 -244 -148c-25.333 0 -46.333 8.33301 -63 25s-25 37 -25 61
c0 50.667 24.833 95.167 74.5 133.5s119.834 64.833 210.501 79.5c56.667 70.667 88 182.667 94 336l-183 -77v83l193 80c10.667 222 73.5 398.667 188.5 530s237.167 197 366.5 197c96.667 0 174.834 -29.167 234.501 -87.5s89.5 -134.833 89.5 -229.5
c0 -93.333 -24.667 -173.666 -74 -240.999s-106 -101 -170 -101c-39.333 0 -70.333 12.167 -93 36.5s-34 54.5 -34 90.5c0 29.333 2 49.666 6 60.999c17.333 -13.333 33.666 -20 48.999 -20c31.333 0 59.333 23.333 84 70s37 100.334 37 161.001
c0 56.667 -13.667 101.667 -41 135s-64.333 50 -111 50c-118.667 0 -189.667 -105.333 -213 -316l-22 -207l151 64v-82l-165 -70c-35.333 -187.333 -110.666 -339.333 -225.999 -456c56.667 4 105.834 0.666992 147.501 -10s101.334 -30.834 179.001 -60.501
s144.5 -44.5 200.5 -44.5c109.333 0 213.666 56 312.999 168v-115z" />
    <glyph glyph-name="lslash" unicode="&#x142;" horiz-adv-x="662" 
d="M684 221c-92 -84 -172 -145.667 -240 -185s-133.333 -59 -196 -59c-71.333 0 -124.166 20.5 -158.499 61.5s-55.5 87.667 -63.5 140s-12 114.5 -12 186.5l-188 -76v82l197 78c45.333 311.333 145.666 604.666 300.999 879.999l254 94c8 2.66699 14 4 18 4
c44 0 66 -55 66 -165c0 -108.667 -19.167 -213.5 -57.5 -314.5s-109.5 -218.833 -213.5 -353.5l195 76v-80l-310 -121c-6.66699 -68 -10 -118.667 -10 -152c0 -54 10.833 -97.833 32.5 -131.5s49.834 -50.5 84.501 -50.5c37.333 0 77.166 13.833 119.499 41.5
s102.833 80.834 181.5 159.501v-115zM301 612c85.333 94 154.165 199.167 206.498 315.5s78.5 216.833 78.5 301.5c0 24.667 -3.66699 44.5 -11 59.5s-16.666 22.5 -27.999 22.5c-18 0 -48.667 -47.5 -92 -142.5s-94.666 -280.5 -153.999 -556.5z" />
    <glyph glyph-name="OE" unicode="&#x152;" horiz-adv-x="2134" 
d="M2157 221c-86.667 -93.333 -170.67 -156.831 -252.003 -190.498s-173.666 -50.5 -276.999 -50.5c-156 0 -275.167 35.833 -357.5 107.5s-123.5 158.5 -123.5 260.5c0 90 34.667 176 104 258s181.333 138 336 168c-96 30.667 -163.667 88 -203 172
c-62 -56.667 -130 -104.334 -204 -143.001c-82 -252.667 -201.167 -453 -357.5 -601s-298.833 -222 -427.5 -222c-95.333 0 -172.666 38.333 -231.999 115s-89 178 -89 304c0 138 26.333 275.333 79 412s124 260.5 214 371.5s163.5 178.833 220.5 203.5s111.167 37 162.5 37
c24 0 36 -4 36 -12c0 -8.66699 -12.667 -23.667 -38 -45c-118.667 -105.333 -214 -244.5 -286 -417.5s-108 -332.833 -108 -479.5c0 -98 18.5 -175 55.5 -231s86.833 -84 149.5 -84c86 0 178.667 57.333 278 172s182 260 248 436c-55.333 -22 -108.333 -33 -159 -33
c-65.333 0 -119.333 22 -162 66s-64 100 -64 168c0 111.333 39.667 215.833 119 313.5s163.333 146.5 252 146.5c56.667 0 100.834 -22.5 132.501 -67.5s47.5 -107.833 47.5 -188.5c0 -68.667 -12.333 -151 -37 -247c38 22 90 62 156 120
c1.33301 122.667 57.666 217.167 168.999 283.5s220.333 99.5 327 99.5c76.667 0 140.5 -19.167 191.5 -57.5s76.5 -73.5 76.5 -105.5c0 -20 -17.667 -51.667 -53 -95s-60.666 -65 -75.999 -65c-18.667 0 -29 24.667 -31 74c-2 107.333 -45 161 -129 161
c-55.333 0 -105 -30.167 -149 -90.5s-66 -130.5 -66 -210.5c0 -58.667 14.5 -105.334 43.5 -140.001s83.5 -52 163.5 -52c14 0 22.667 -1.33301 26 -4s5 -7.66699 5 -15c0 -16.667 -5.33301 -41.667 -16 -75s-20.334 -50 -29.001 -50l-127 9
c-70 0 -130.833 -29.833 -182.5 -89.5s-77.5 -130.167 -77.5 -211.5c0 -88 29.667 -160.333 89 -217s135.333 -85 228 -85c142.667 0 277.334 77.333 404.001 232v-115zM1124 870.002c36 140.667 53.999 242 53.999 304c0 110 -33.667 165 -101 165
c-52 0 -97.333 -39.167 -136 -117.5s-58 -152.5 -58 -222.5c0 -46.667 12.833 -85.167 38.5 -115.5s57.834 -45.5 96.501 -45.5c36.667 0 72 10.667 106 32z" />
    <glyph glyph-name="oe" unicode="&#x153;" horiz-adv-x="1237" 
d="M1262 223c-176 -165.333 -333.004 -247.998 -471.004 -247.998c-104.667 0 -187.334 48 -248.001 144c-87.333 -96 -174.666 -144 -261.999 -144c-78.667 0 -143.167 29.667 -193.5 89s-75.5 135.666 -75.5 228.999c0 154.667 53.833 286.5 161.5 395.5
s237.5 163.5 389.5 163.5c114.667 0 173.334 -28.667 176.001 -86c82.667 58.667 159.334 88 230.001 88c60.667 0 110.334 -16.333 149.001 -49s58 -74.334 58 -125.001c0 -147.333 -145 -260 -435 -338c25.333 -128 92.333 -192 201 -192
c52.667 0 103.834 15.333 153.501 46s105.167 78 166.5 142v-115zM599.996 782.002c-20.667 4 -38.999 6 -54.999 6c-86.667 0 -154.167 -45 -202.5 -135s-72.5 -195.667 -72.5 -317c0 -69.333 10.833 -123.166 32.5 -161.499s51.167 -57.5 88.5 -57.5
c33.333 0 75.666 28.667 126.999 86c-1.33301 10 -2 20.667 -2 32c0 33.333 6.33301 74.333 19 123c-59.333 28.667 -89 78.667 -89 150c0 107.333 51.333 198.666 154 273.999zM736.997 408.002c165.333 52 248.001 141.333 248.001 268c0 62.667 -24 94 -72 94
c-37.333 0 -74.333 -33.5 -111 -100.5s-58.334 -154.167 -65.001 -261.5z" />
    <glyph glyph-name="Scaron" unicode="&#x160;" horiz-adv-x="1153" 
d="M1067 1245c0 -26 -43.002 -90.0029 -129.002 -192.003h-18c-13.333 5.33301 -21.666 25 -24.999 59c-7.33301 68.667 -31 124.834 -71 168.501s-88 65.5 -144 65.5c-52.667 0 -98 -19.167 -136 -57.5s-57 -84.166 -57 -137.499c0 -38.667 12 -80.167 36 -124.5
s86.5 -114.5 187.5 -210.5s165.833 -172.5 194.5 -229.5s43 -111.167 43 -162.5c0 -118.667 -51.5 -223.167 -154.5 -313.5s-223.5 -135.5 -361.5 -135.5c-114 0 -208 26.5 -282 79.5s-111 96.167 -111 129.5c0 18.667 20.333 62 61 130s64 102 70 102
c21.333 0 36.5 -6.16699 45.5 -18.5s15.167 -35.166 18.5 -68.499c10 -104 35.167 -175.667 75.5 -215s92.833 -59 157.5 -59c70.667 0 132.334 24.5 185.001 73.5s79 105.833 79 170.5c0 33.333 -10.167 68.833 -30.5 106.5s-78 101.667 -173 192
s-157.167 166.833 -186.5 229.5s-44 123.667 -44 183c0 103.333 39 198.333 117 285s181.667 130 311 130c98 0 179.5 -22.5 244.5 -67.5s97.5 -82.5 97.5 -112.5zM1184 1944l-13 -49c-120.667 -81.333 -223.667 -191.333 -309 -330l-217 -35
c3.33301 115.333 -3.16699 198 -19.5 248s-40.5 93 -72.5 129l10 41c100 -35.333 184 -113 252 -233c114.667 120.667 237.667 197 369 229z" />
    <glyph glyph-name="scaron" unicode="&#x161;" horiz-adv-x="831" 
d="M330 807c46 12 92.3311 21.834 138.998 29.501s74.667 11.5 84 11.5c6.66699 0 10 -2.66699 10 -8c0 -10 -2.66699 -20.333 -8 -31c-10.667 -30.667 -16 -60 -16 -88c0 -34.667 20 -82 60 -142s60 -115.667 60 -167c0 -102 -48.833 -200.333 -146.5 -295
s-198.834 -142 -303.501 -142c-45.333 0 -86.666 12 -123.999 36s-56 49.667 -56 77c0 16 18.5 46.333 55.5 91s63.5 67 79.5 67c21.333 0 40.333 -27.333 57 -82s45.334 -82 86.001 -82s78.834 18.833 114.501 56.5s53.5 78.167 53.5 121.5c0 42 -22.667 98 -68 168
s-75.333 128.667 -90 176c-77.333 -124.667 -175.333 -252.334 -294 -383.001h-23v90c163.333 174 273.333 339.333 330 496zM900.998 1366l-13 -49c-120.667 -81.333 -223.667 -191.333 -309 -330l-217 -35c3.33301 115.333 -3.16699 198 -19.5 248s-40.5 93 -72.5 129
l10 41c100 -35.333 184 -113 252 -233c114.667 120.667 237.667 197 369 229z" />
    <glyph glyph-name="Ydieresis" unicode="&#x178;" horiz-adv-x="1556" 
d="M1579 221c-66.667 -82.667 -188.998 -151.665 -366.998 -206.998c-63.333 -181.333 -141 -315 -233 -401s-187.667 -129 -287 -129c-50.667 0 -91.334 13.833 -122.001 41.5s-46 64.167 -46 109.5c0 143.333 141.333 264.333 424 363l23 94c66 268.667 107 429 123 481
l57 191c-7.33301 -14 -23 -47.667 -47 -101c-115.333 -258.667 -218 -435.5 -308 -530.5s-178.667 -142.5 -266 -142.5c-66.667 0 -120.834 26 -162.501 78s-62.5 120 -62.5 204c0 105.333 37.5 266 112.5 482s112.5 360 112.5 432c0 44 -11.5 80.5 -34.5 109.5
s-52.167 43.5 -87.5 43.5c-54.667 0 -106 -30.333 -154 -91s-72 -125.667 -72 -195c0 -63.333 22.667 -114.666 68 -153.999c16 -14.667 24 -26.334 24 -35.001c0 -20 -13.167 -47.5 -39.5 -82.5s-52.5 -52.5 -78.5 -52.5c-28 0 -54.833 19.667 -80.5 59s-38.5 81 -38.5 125
c0 118 43.333 234 130 348s190 171 310 171c85.333 0 155.166 -33.5 209.499 -100.5s81.5 -153.833 81.5 -260.5c0 -128 -41 -305.333 -123 -532c-56 -156.667 -84 -267.334 -84 -332.001c0 -60 22 -90 66 -90c81.333 0 185.333 122.167 312 366.5s241 538.5 343 882.5
c4.66699 17.333 12.834 28.666 24.501 33.999s51.667 12 120 20s104.833 12 109.5 12c17.333 0 25 -5 23 -15l-54 -217l-155 -678c-21.333 -93.333 -57 -231 -107 -413c137.333 43.333 249.333 119 336 227v-115zM924.002 -89.998
c-100 -34 -178.998 -75.833 -236.998 -125.5s-87 -96.5 -87 -140.5c0 -24.667 8.66699 -45.167 26 -61.5s38.666 -24.5 63.999 -24.5c50 0 93.167 28.667 129.5 86s71.166 146 104.499 266zM1327 1759c-8.66699 -108 -50.334 -162 -125.001 -162c-36 0 -87 20.333 -153 61
c42.667 69.333 73.334 131 92.001 185c72.667 -45.333 134.667 -73.333 186 -84zM969.004 1763c-12.667 -109.333 -57.001 -164 -133.001 -164c-42 0 -90 20.333 -144 61c40 64.667 68.667 125.667 86 183c80.667 -50 144.334 -76.667 191.001 -80z" />
    <glyph glyph-name="Zcaron" unicode="&#x17d;" horiz-adv-x="1153" 
d="M1176 221c-88 -84 -169.835 -145.668 -245.502 -185.001s-157.167 -59 -244.5 -59c-56.667 0 -128 17.833 -214 53.5s-156.667 53.5 -212 53.5c-35.333 0 -61.5 -5.5 -78.5 -16.5s-29.833 -30.167 -38.5 -57.5c-7.33301 -22 -18 -33 -32 -33
c-31.333 0 -51.166 1.33301 -59.499 4s-12.5 9.66699 -12.5 21c0 13.333 17.333 55.833 52 127.5s92 159.167 172 262.5s208.667 249 386 437l68 72c128 136 210.667 233.667 248 293c-45.333 -23.333 -97.333 -35 -156 -35c-50 0 -115.5 9.16699 -196.5 27.5
s-139.167 27.5 -174.5 27.5c-52 0 -94.667 -12.5 -128 -37.5s-50 -56.833 -50 -95.5c0 -35.333 16.667 -67 50 -95s50 -50 50 -66c0 -19.333 -16.333 -43.333 -49 -72s-55.667 -43 -69 -43c-22 0 -44 16.833 -66 50.5s-33 68.834 -33 105.501
c0 111.333 49.333 216.833 148 316.5s203 149.5 313 149.5c28.667 0 87.834 -9.16699 177.501 -27.5s151.5 -27.5 185.5 -27.5c46.667 0 80.834 8.83301 102.501 26.5s36.5 26.5 44.5 26.5c24.667 0 37 -5.33301 37 -16c0 -32.667 -15.5 -78.167 -46.5 -136.5
s-68.5 -115.333 -112.5 -171s-148.667 -173.5 -314 -353.5s-269 -295 -311 -345s-79 -103.667 -111 -161c62.667 18 105.667 29.333 129 34s54.666 7 93.999 7c68 0 149.833 -16.833 245.5 -50.5s166.167 -50.5 211.5 -50.5c42 0 81 12.667 117 38s77 64 123 116v-115z
M1143 1944l-13 -49c-120.667 -81.333 -223.667 -191.333 -309 -330l-217 -35c3.33301 115.333 -3.16699 198 -19.5 248s-40.5 93 -72.5 129l10 41c100 -35.333 184 -113 252 -233c114.667 120.667 237.667 197 369 229z" />
    <glyph glyph-name="zcaron" unicode="&#x17e;" horiz-adv-x="981" 
d="M1004 221c-90.667 -100 -158.835 -166 -204.502 -198s-90.834 -48 -135.501 -48c-25.333 0 -71.833 11 -139.5 33s-118.834 33 -153.501 33c-43.333 0 -74.833 -11 -94.5 -33s-32.5 -33 -38.5 -33c-33.333 0 -53.333 0.5 -60 1.5s-10 3.5 -10 7.5
c0 14.667 57 91.667 171 231l345 420c-38.667 -8 -80.334 -12 -125.001 -12c-60 0 -122 10 -186 30c-120 -172 -236.667 -316 -350 -432h-23v90c84.667 86.667 166.167 183.834 244.5 291.501s123.833 175.5 136.5 203.5s23 42 31 42c4.66699 0 35.334 -4.5 92.001 -13.5
s102.334 -13.5 137.001 -13.5c62.667 0 120.167 4.5 172.5 13.5s82.833 13.5 91.5 13.5c12.667 0 19 -3.33301 19 -10c0 -24.667 -53.667 -101.334 -161 -230.001l-323 -391c26.667 2.66699 48.667 4 66 4c12.667 0 55.834 -7.5 129.501 -22.5s117.834 -22.5 132.501 -22.5
c41.333 0 76.833 11.167 106.5 33.5s72.834 64.5 129.501 126.5v-115zM1067 1366l-13 -49c-120.667 -81.333 -223.667 -191.333 -309 -330l-217 -35c3.33301 115.333 -3.16699 198 -19.5 248s-40.5 93 -72.5 129l10 41c100 -35.333 184 -113 252 -233
c114.667 120.667 237.667 197 369 229z" />
    <glyph glyph-name="florin" unicode="&#x192;" horiz-adv-x="1024" 
d="M311 905c71.333 0 122.832 15.332 154.499 45.999s64.167 90.667 97.5 180s73.833 154.666 121.5 195.999s106.834 62 177.501 62c49.333 0 88.666 -11.833 117.999 -35.5s44 -54.834 44 -93.501c0 -33.333 -10.167 -60.833 -30.5 -82.5s-45.5 -32.5 -75.5 -32.5
c-24.667 0 -45.667 8.16699 -63 24.5s-26 35.5 -26 57.5c0 14 5.16699 32.5 15.5 55.5s15.5 35.167 15.5 36.5c0 14.667 -8.66699 22 -26 22c-28 0 -50.833 -12.833 -68.5 -38.5s-26.5 -59.167 -26.5 -100.5l9 -174c0 -34.667 -4.33301 -75.667 -13 -123h154l-25 -121h-153
l-101 -499c-19.333 -96 -41.5 -192.667 -66.5 -290s-57.167 -178.666 -96.5 -243.999s-84.166 -113.833 -134.499 -145.5s-102.5 -47.5 -156.5 -47.5c-44 0 -81 11.333 -111 34s-45 50 -45 82c0 26.667 10 49.834 30 69.501s44 29.5 72 29.5s50.5 -7.16699 67.5 -21.5
s25.5 -33.166 25.5 -56.499c0 -2.66699 -2.16699 -11.5 -6.5 -26.5s-6.5 -23.833 -6.5 -26.5c0 -15.333 9.66699 -23 29 -23c22.667 0 41 11.5 55 34.5s21 53.833 21 92.5l-8 188c0 74 13.333 178.667 40 314l109 536h-141z" />
    <glyph glyph-name="circumflex" unicode="&#x2c6;" horiz-adv-x="682" 
d="M715 993l-8 -39.002c-99.333 24 -184 102 -254 234c-58 -66.667 -111.833 -116.167 -161.5 -148.5s-118.167 -62.166 -205.5 -89.499l10 49c122.667 86 226 197.333 310 334l215 39c0 -104.667 5.66699 -182.167 17 -232.5s37 -99.166 77 -146.499z" />
    <glyph glyph-name="caron" unicode="&#x2c7;" horiz-adv-x="682" 
d="M887 1366l-13 -49c-120.667 -81.333 -223.667 -191.333 -309 -330l-217 -35c3.33301 115.333 -3.16699 198 -19.5 248s-40.5 93 -72.5 129l10 41c100 -35.333 184 -113 252 -233c114.667 120.667 237.667 197 369 229z" />
    <glyph glyph-name="macron" unicode="&#x2c9;" horiz-adv-x="682" 
d="M606 1229l-20 -182h-670l21 182h669z" />
    <glyph glyph-name="breve" unicode="&#x2d8;" horiz-adv-x="690" 
d="M839 1212c-76.667 -104.667 -137.5 -175.167 -182.5 -211.5s-88.5 -54.5 -130.5 -54.5c-94 0 -138.333 72.333 -133 217l180 62c0.666992 -48.667 5.5 -84.5 14.5 -107.5s24.833 -34.5 47.5 -34.5c44 0 111.333 67 202 201z" />
    <glyph glyph-name="dotaccent" unicode="&#x2d9;" horiz-adv-x="682" 
d="M834 1182c-8.66699 -108 -51.667 -162 -129 -162c-46 0 -96.667 21 -152 63c38.667 62.667 68.667 125.667 90 189c75.333 -48.667 139 -78.667 191 -90z" />
    <glyph glyph-name="ring" unicode="&#x2da;" horiz-adv-x="682" 
d="M573 1333c54 0 99.667 -18 137 -54s56 -80 56 -132s-18.5 -96.5 -55.5 -133.5s-81.167 -55.5 -132.5 -55.5c-52 0 -96.5 18.5 -133.5 55.5s-55.5 81.5 -55.5 133.5c0 50 18.333 93.5 55 130.5s79.667 55.5 129 55.5zM578 1032c31.333 0 58.5 11.333 81.5 34
s34.5 49.667 34.5 81c0 30.667 -11.5 57.5 -34.5 80.5s-49.5 34.5 -79.5 34.5c-32 0 -59.5 -11.333 -82.5 -34s-34.5 -49.667 -34.5 -81c0 -32 11.167 -59.167 33.5 -81.5s49.5 -33.5 81.5 -33.5z" />
    <glyph glyph-name="ogonek" unicode="&#x2db;" horiz-adv-x="682" 
d="M580 -262l-37 -181.999c-27.333 -8.66699 -55.333 -13 -84 -13c-52.667 0 -94.167 13.333 -124.5 40s-45.5 62.667 -45.5 108c0 44.667 13.5 87.167 40.5 127.5s83.167 102.166 168.5 185.499h69c-58 -60.667 -97.333 -105 -118 -133s-31 -54.667 -31 -80
c0 -16.667 8 -31.667 24 -45s34 -20 54 -20c16 0 44 4 84 12z" />
    <glyph glyph-name="tilde" unicode="&#x2dc;" horiz-adv-x="682" 
d="M764 1180c-32 -66 -65.833 -114.333 -101.5 -145s-79.167 -46 -130.5 -46c-40.667 0 -87.667 14.667 -141 44s-96.333 44 -129 44c-48 0 -84.667 -23.667 -110 -71l-56 34c52 130 129.333 195 232 195c43.333 0 93 -14 149 -42s95 -42 117 -42c49.333 0 87 26 113 78z
" />
    <glyph glyph-name="hungarumlaut" unicode="&#x2dd;" horiz-adv-x="682" 
d="M1274 1329c-18 -72.667 -55.332 -136.668 -111.999 -192.001s-144.334 -115.666 -263.001 -180.999l-59 21c96.667 112.667 164 222 202 328zM840.001 1329c-18 -72.667 -55.167 -136.667 -111.5 -192s-143.5 -115.666 -261.5 -180.999l-61 21
c98.667 115.333 166.667 224.666 204 327.999z" />
    <glyph glyph-name="pi" unicode="&#x3c0;" horiz-adv-x="1124" 
d="M1085 309c-3.33301 -103.333 -28.498 -186.167 -75.498 -248.5s-102.833 -93.5 -167.5 -93.5c-52.667 0 -98.834 30.5 -138.501 91.5s-59.5 154.833 -59.5 281.5c0 28 0.666992 54.667 2 80s3 49.333 5 72l35 329h-231c-40 -416 -72.833 -663.5 -98.5 -742.5
s-69.167 -118.5 -130.5 -118.5c-26 0 -50.667 10.333 -74 31s-35 48 -35 82c0 30.667 24.167 73.5 72.5 128.5s75.166 105.167 80.499 150.5l60 469h-97c-26.667 0 -52.834 -6.5 -78.501 -19.5s-44.5 -28.167 -56.5 -45.5l-43 -64h-35
c32.667 101.333 72.834 177.5 120.501 228.5s102.5 76.5 164.5 76.5h764v-176h-258c-8 -80 -14.167 -160 -18.5 -240s-6.5 -160.333 -6.5 -241c0 -54.667 12.667 -99 38 -133s57 -51 95 -51c23.333 0 47.833 9.5 73.5 28.5s40.167 43.833 43.5 74.5
c2 14.667 3.5 26.167 4.5 34.5s1.5 13.5 1.5 15.5h43z" />
    <glyph glyph-name="endash" unicode="&#x2013;" horiz-adv-x="1024" 
d="M1034 422h-1044v182h1044v-182z" />
    <glyph glyph-name="emdash" unicode="&#x2014;" horiz-adv-x="2048" 
d="M2058 422h-2068v182h2068v-182z" />
    <glyph glyph-name="quoteleft" unicode="&#x2018;" horiz-adv-x="492" 
d="M463 1364c-148.667 -72 -223 -147.666 -223 -226.999c0 -61.333 36.667 -105 110 -131c15.333 -6.66699 23 -12.334 23 -17.001c0 -6 -15.833 -26 -47.5 -60s-69.167 -79.333 -112.5 -136c-109.333 57.333 -164 136.333 -164 237c0 78.667 36 155.5 108 230.5
s170 131.5 294 169.5z" />
    <glyph glyph-name="quoteright" unicode="&#x2019;" horiz-adv-x="492" 
d="M303 1430c106.667 -56 160 -134.668 160 -236.001c0 -84 -33.833 -160.333 -101.5 -229s-167.167 -126 -298.5 -172l-14 61c76 41.333 132.5 78.833 169.5 112.5s55.5 73.834 55.5 120.501c0 59.333 -34 101 -102 125c-20.667 6.66699 -31 13.667 -31 21
c0 6 11.667 21.667 35 47c58.667 62.667 101 112.667 127 150z" />
    <glyph glyph-name="quotesinglbase" unicode="&#x201a;" horiz-adv-x="492" 
d="M297 295c56 -34 97.001 -69.167 123.001 -105.5s39 -79.833 39 -130.5c0 -166 -131 -303 -393 -411l-21 61c77.333 47.333 134.166 88.333 170.499 123s54.5 74.334 54.5 119.001c0 58 -33.333 100.333 -100 127c-23.333 8 -35 16 -35 24c0 6.66699 14 22.667 42 48
s68 73.666 120 144.999z" />
    <glyph glyph-name="quotedblleft" unicode="&#x201c;" horiz-adv-x="981" 
d="M961 1370c-75.333 -40 -131.501 -77.165 -168.501 -111.498s-55.5 -74.833 -55.5 -121.5c0 -58 35.667 -100.333 107 -127c17.333 -6.66699 26 -13 26 -19c0 -9.33301 -13.833 -27.833 -41.5 -55.5s-67.5 -73.834 -119.5 -138.501
c-106.667 61.333 -160 135.666 -160 222.999c0 91.333 36.833 173 110.5 245s169.834 127 288.501 165zM468.999 1368c-75.333 -38.667 -131.331 -75.167 -167.998 -109.5s-55 -74.833 -55 -121.5c0 -58 35.333 -101 106 -129c18 -6.66699 27 -12.334 27 -17.001
c0 -9.33301 -16.833 -31.166 -50.5 -65.499s-70.834 -77.833 -111.501 -130.5c-108 64 -162 139 -162 225c0 92 37.167 174.167 111.5 246.5s171.166 126.833 290.499 163.5z" />
    <glyph glyph-name="quotedblright" unicode="&#x201d;" horiz-adv-x="981" 
d="M791 1430c108.667 -56.667 163.001 -136.665 163.001 -239.998c0 -77.333 -33 -151.333 -99 -222s-166.667 -129 -302 -175l-12 65c77.333 37.333 134.166 73.666 170.499 108.999s54.5 75.333 54.5 120c0 28.667 -11 54.667 -33 78s-44.5 38 -67.5 44
s-34.5 15.333 -34.5 28c0 2.66699 13.5 18.667 40.5 48s66.833 77.666 119.5 144.999zM297.001 1430c57.333 -30 99.334 -63.166 126.001 -99.499s40 -82.5 40 -138.5c0 -175.333 -134 -310 -402 -404l-10 66c76.667 37.333 133 73.666 169 108.999s54 76 54 122
c0 27.333 -10.333 53 -31 77s-46.334 40 -77.001 48c-18 6 -27 14.333 -27 25c0 0.666992 16 19.667 48 57s68.667 83.333 110 138z" />
    <glyph glyph-name="quotedblbase" unicode="&#x201e;" horiz-adv-x="981" 
d="M311 295c52.667 -34.667 91.167 -70.168 115.5 -106.501s36.5 -80.166 36.5 -131.499c0 -170 -134 -304.333 -402 -403l-12 63c74 40 130 76.833 168 110.5s57 73.5 57 119.5c0 56.667 -32 99 -96 127c-20.667 10 -31 18.667 -31 26c0 2 35 43.667 105 125zM799 288.999
c53.333 -32 92.168 -65.334 116.501 -100.001s36.5 -78 36.5 -130c0 -170.667 -133 -307.667 -399 -411l-12 69c78 38 135.333 74.833 172 110.5s55 77.5 55 125.5c0 50.667 -30.667 89.667 -92 117c-26 12 -39 22 -39 30c0 6 14.167 23.833 42.5 53.5
s68.166 74.834 119.499 135.501z" />
    <glyph glyph-name="dagger" unicode="&#x2020;" horiz-adv-x="1153" 
d="M1143 965c-24 -107.333 -63 -205.672 -117 -295.005c-100.667 20.667 -206.334 55.334 -317.001 104.001c-90 -313.333 -168 -692 -234 -1136c-118 -50.667 -229.333 -83 -334 -97c20 93.333 53.833 215 101.5 365s101.834 308.833 162.501 476.5
s106.667 300.834 138 399.501c-71.333 -38 -131.833 -65.5 -181.5 -82.5s-103.167 -25.5 -160.5 -25.5c-26.667 0 -58.334 3.33301 -95.001 10l89 262c142 -48 268 -72.667 378 -74c28 130.667 45.333 299.334 52 506.001c128 9.33301 224 25.666 288 48.999
c-4.66699 -75.333 -18.167 -145.166 -40.5 -209.499s-66.833 -180.166 -133.5 -347.499c104.667 4.66699 239.334 36.334 404.001 95.001z" />
    <glyph glyph-name="daggerdbl" unicode="&#x2021;" horiz-adv-x="1300" 
d="M1303 1024c-22 -105.333 -60.3301 -203 -114.997 -293c-87.333 12 -196.666 49.667 -327.999 113c-32.667 -116.667 -49 -209.667 -49 -279c0 -16.667 2 -40.334 6 -71.001c-78.667 -84.667 -135.334 -214 -170.001 -388c139.333 76.667 252 115 338 115
c35.333 0 73 -5.33301 113 -16l-90 -258c-98 34 -170.833 55.667 -218.5 65s-100.5 13.666 -158.5 12.999c-14.667 -149.333 -21 -290.666 -19 -423.999c-92.667 -34 -190.334 -53.333 -293.001 -58c4 64 14.167 122.333 30.5 175s56.166 158.334 119.499 317.001
c-128 -13.333 -261 -42.666 -399 -87.999c11.333 82.667 51.333 179.667 120 291c83.333 -18 187.333 -55 312 -111c32.667 98 49 180.667 49 248c0 32 -3.33301 70 -10 114c78 91.333 135.333 207.666 172 348.999c-128 -66 -240.667 -99 -338 -99c-43.333 0 -77 3 -101 9
l88 258c178 -50 302.333 -74 373 -72c25.333 170.667 37.666 318.667 36.999 444c106.667 2.66699 203.667 17.667 291 45c-8 -59.333 -20.667 -118.833 -38 -178.5s-59.333 -163.167 -126 -310.5c117.333 6 252 36 404 90z" />
    <glyph glyph-name="bullet" unicode="&#x2022;" horiz-adv-x="717" 
d="M401 963c78.667 0 145.834 -28.167 201.501 -84.5s83.5 -123.833 83.5 -202.5s-27.833 -146.167 -83.5 -202.5s-122.834 -84.5 -201.501 -84.5c-78 0 -144.833 28.167 -200.5 84.5s-83.5 123.833 -83.5 202.5s27.833 146.167 83.5 202.5s122.5 84.5 200.5 84.5z" />
    <glyph glyph-name="ellipsis" unicode="&#x2026;" horiz-adv-x="2048" 
d="M1888 209c-29.333 -94.667 -56.333 -156.999 -81 -186.999s-61 -45 -109 -45c-59.333 0 -118 21.333 -176 64c38 57.333 71.333 135.666 100 234.999c41.333 -34.667 72.333 -57.167 93 -67.5s45 -15.5 73 -15.5c24.667 0 58 5.33301 100 16zM1206 209.001
c-29.333 -94.667 -56.333 -156.999 -81 -186.999s-61 -45 -109 -45c-59.333 0 -118 21.333 -176 64c36.667 55.333 70.667 133.666 102 234.999c40 -34.667 70.167 -57.167 90.5 -67.5s44.833 -15.5 73.5 -15.5c24.667 0 58 5.33301 100 16zM524 209.002
c-29.333 -95.333 -56.166 -157.833 -80.499 -187.5s-60.833 -44.5 -109.5 -44.5c-60 0 -118 21.333 -174 64c35.333 54.667 68.666 133 99.999 235c42.667 -36 74 -58.833 94 -68.5s44 -14.5 72 -14.5c24 0 56.667 5.33301 98 16z" />
    <glyph glyph-name="perthousand" unicode="&#x2030;" horiz-adv-x="2050" 
d="M594 1223c39.333 -7.33301 78.332 -11 116.999 -11c112.667 0 251 35.833 415 107.5s257.667 107.5 281 107.5c22 0 33 -12 33 -36c0 -8.66699 -2 -16.334 -6 -23.001l-1174 -1868h-170l1108 1768c-205.333 -86 -367.666 -129 -486.999 -129c-42 0 -85 3.33301 -129 10
c-23.333 -124.667 -63 -216 -119 -274s-119 -87 -189 -87c-59.333 0 -108.5 21.333 -147.5 64s-58.5 96.667 -58.5 162c0 54 16 117.5 48 190.5s73.667 129.167 125 168.5s90.333 59 117 59c18 0 27 -9.66699 27 -29c0 -11.333 -12.333 -36 -37 -74
c-74.667 -113.333 -112 -221 -112 -323c0 -41.333 7.5 -74.666 22.5 -99.999s34.5 -38 58.5 -38c30 0 66.333 25 109 75s72 127 88 231c-45.333 30.667 -68 72 -68 124c0 35.333 7.16699 66.5 21.5 93.5s30.5 40.5 48.5 40.5c52 0 78 -69.667 78 -209zM2202 -76
c1.33301 -30.667 -0.661133 -49.1699 -5.99414 -55.5029s-17 -9.5 -35 -9.5c-22 -117.333 -61.833 -206.833 -119.5 -268.5s-119.834 -92.5 -186.501 -92.5c-57.333 0 -105.333 21 -144 63s-58 94.667 -58 158c0 72.667 18.167 145.667 54.5 219
s78.666 125.833 126.999 157.5s83.166 47.5 104.499 47.5c19.333 0 29 -8 29 -24c0 -8.66699 -10.333 -30 -31 -64c-78.667 -123.333 -118 -240.666 -118 -351.999c0 -38.667 6.66699 -69.167 20 -91.5s31.666 -33.5 54.999 -33.5c31.333 0 68.166 25.5 110.499 76.5
s73.166 127.833 92.499 230.5c-24.667 14.667 -42 30.334 -52 47.001s-15 41.334 -15 74.001c0 40 6.5 72.833 19.5 98.5s29.5 38.5 49.5 38.5c49.333 0 74 -69.667 74 -209zM1513 -76.0029c2 -30.667 0.334961 -49.1699 -4.99805 -55.5029s-17 -9.5 -35 -9.5
c-20.667 -116.667 -60 -206 -118 -268s-120 -93 -186 -93c-58 0 -106.5 21.167 -145.5 63.5s-58.5 94.833 -58.5 157.5c0 72.667 18 145.667 54 219s78.333 125.833 127 157.5s83.667 47.5 105 47.5c19.333 0 29 -8 29 -24c0 -12.667 -9.66699 -34 -29 -64
c-80.667 -125.333 -121 -242.666 -121 -351.999c0 -38.667 6.83301 -69.167 20.5 -91.5s32.167 -33.5 55.5 -33.5c31.333 0 68.166 25.5 110.499 76.5s73.166 127.833 92.499 230.5c-24.667 14.667 -42.167 30.334 -52.5 47.001s-15.5 41.334 -15.5 74.001
c0 39.333 6.83301 72 20.5 98s30.167 39 49.5 39c49.333 0 74 -69.667 74 -209z" />
    <glyph glyph-name="guilsinglleft" unicode="&#x2039;" horiz-adv-x="575" 
d="M334 860c22.667 28.667 36.999 43.001 42.999 43.001c9.33301 0 37.5 -14.833 84.5 -44.5s70.5 -48.167 70.5 -55.5c0 -2 -6.66699 -11 -20 -27l-178 -211c-40 -46.667 -60 -80.667 -60 -102c0 -22.667 6.33301 -51.334 19 -86.001l63 -180
c0 -0.666992 3.16699 -10 9.5 -28s9.5 -28 9.5 -30c0 -9.33301 -7.66699 -16.666 -23 -21.999l-108 -41c-18.667 -8.66699 -29.667 -13 -33 -13c-9.33301 0 -23.666 28 -42.999 84l-64 185c-24 68 -36 119 -36 153c0 31.333 44.333 101.666 133 210.999z" />
    <glyph glyph-name="guilsinglright" unicode="&#x203a;" horiz-adv-x="575" 
d="M238 76c-2 -2 -4.16699 -4.66699 -6.5 -8s-4.5 -5 -6.5 -5c-15.333 0 -45.333 15 -90 45s-67 48 -67 54c0 2 22.667 28.667 68 80l119 139.5c34 41.667 54.667 69.334 62 83.001s11 28.167 11 43.5c0 41.333 -22.667 115 -68 221c-23.333 53.333 -35 88.333 -35 105
c0 3.33301 22.5 15.666 67.5 36.999s77.167 32 96.5 32c4.66699 0 11 -8.66699 19 -26s30.667 -82.333 68 -195s56 -181.667 56 -207c0 -26 -15 -57.333 -45 -94z" />
    <glyph glyph-name="trademark" unicode="&#x2122;" horiz-adv-x="2048" 
d="M2058 549h-460.999v35c51.333 0 83.333 7.83301 96 23.5s19 50.834 19 105.501v506l-319 -670h-25l-317 670v-504c0 -53.333 5.66699 -88.333 17 -105s43.666 -25.334 96.999 -26.001v-35h-280v35c48.667 0.666992 78.834 8.33398 90.501 23.001s17.5 52 17.5 112v467
c0 55.333 -5.83301 91.833 -17.5 109.5s-41.834 25.5 -90.501 23.5v37h366l232 -496l229 496h346v-37c-40 1.33301 -66.667 -5.16699 -80 -19.5s-20 -52.833 -20 -115.5v-471c0 -48 5.16699 -80.833 15.5 -98.5s38.5 -27.834 84.5 -30.501v-35zM774.001 1130h-35.0029
c-3.33301 54.667 -15.166 94.667 -35.499 120s-45 40.833 -74 46.5s-69.5 8.5 -121.5 8.5v-588c0 -54 5.5 -89.667 16.5 -107s39.5 -26 85.5 -26v-35h-454v35c48.667 2.66699 77.834 10.5 87.501 23.5s14.5 50.833 14.5 113.5v584c-49.333 0 -88.166 -3 -116.499 -9
s-53 -21.5 -74 -46.5s-33.833 -64.833 -38.5 -119.5h-31v226h776v-226z" />
    <glyph glyph-name="Ohm" unicode="&#x2126;" horiz-adv-x="1573" 
d="M1506 0h-603.998l33 311c107.333 39.333 182.666 106 225.999 200s65 198.333 65 313c0 151.333 -35.667 275.666 -107 372.999s-181.666 146 -330.999 146s-259.666 -48.667 -330.999 -146s-107 -221.666 -107 -372.999c0 -114.667 21.667 -219 65 -313
s118.666 -160.667 225.999 -200l33 -311h-604v332h30c10.667 -44 24 -75.833 40 -95.5s48 -29.5 96 -29.5h323l-4 57c-158.667 43.333 -272.334 117 -341.001 221s-103 214.667 -103 332c0 172.667 64 314.5 192 425.5s289.667 166.5 485 166.5s357 -55.5 485 -166.5
s192 -252.833 192 -425.5c0 -117.333 -34.333 -228 -103 -332s-182.334 -177.667 -341.001 -221l-4 -57h323c48 0 80 9.83301 96 29.5s29.333 51.5 40 95.5h30v-332z" />
    <glyph glyph-name="partialdiff" unicode="&#x2202;" horiz-adv-x="1012" 
d="M295 1120h-44.999c87.333 202 213.666 303 378.999 303c107.333 0 195.166 -42.333 263.499 -127s102.5 -210 102.5 -376c0 -238.667 -54.833 -456.834 -164.5 -654.501s-252.167 -296.5 -427.5 -296.5c-103.333 0 -185.333 30.333 -246 91s-91 142.334 -91 245.001
c0 159.333 55.5 299.5 166.5 420.5s238.833 181.5 383.5 181.5c148 0 252 -63.333 312 -190h4c6.66699 96 10 158 10 186c0 116.667 -30.833 208.667 -92.5 276s-146.167 101 -253.5 101c-129.333 0 -229.666 -53.333 -300.999 -160zM911.001 629
c-54 150 -148.669 225 -284.002 225c-118.667 0 -214 -63.5 -286 -190.5s-108 -260.167 -108 -399.5c0 -72 18 -129.5 54 -172.5s83.667 -64.5 143 -64.5c90.667 0 183.834 54.167 279.501 162.5s162.834 254.833 201.501 439.5z" />
    <glyph glyph-name="Delta" unicode="&#x2206;" horiz-adv-x="1253" 
d="M668 1409l577 -1409h-1233zM594 1059l-447 -959h844z" />
    <glyph glyph-name="product" unicode="&#x220f;" horiz-adv-x="1686" 
d="M1645 -207h-629.002v47c80 0 133.167 13.667 159.5 41s39.5 69 39.5 125v1419h-734v-1419c0 -56 13.167 -97.667 39.5 -125s79.5 -41 159.5 -41v-47h-629v47c81.333 0 134.833 13.667 160.5 41s38.5 69 38.5 125v1282c0 67.333 -16.167 118 -48.5 152
s-81.166 51 -146.499 51v47h1586v-47c-65.333 0 -114.166 -17 -146.499 -51s-48.5 -84.667 -48.5 -152v-1282c0 -56 12.833 -97.667 38.5 -125s79.167 -41 160.5 -41v-47z" />
    <glyph glyph-name="summation" unicode="&#x2211;" horiz-adv-x="1460" 
d="M1423 238c-21.333 -83.333 -39.334 -163.334 -54.001 -240.001s-26 -149.667 -34 -219c-42 7.33301 -76.167 12.833 -102.5 16.5s-44.5 5.5 -54.5 5.5h-1031c-13.333 0 -33 -1 -59 -3s-45.667 -3 -59 -3l714 815l-710 930c46.667 -4.66699 87.667 -8.16699 123 -10.5
s65.333 -3.5 90 -3.5h1018l12 -326h-41c-20.667 68 -38.167 115 -52.5 141s-41.5 48 -81.5 66c-20 8.66699 -44.833 15.334 -74.5 20.001s-64.5 7 -104.5 7h-539l559 -734l-602 -694h760c84.667 0 143.834 17.333 177.501 52s66.5 94.667 98.5 180h47z" />
    <glyph glyph-name="minus" unicode="&#x2212;" horiz-adv-x="1366" 
d="M1231 469h-1096v158h1096v-158z" />
    <glyph glyph-name="fraction" unicode="&#x2215;" horiz-adv-x="170" 
d="M594 1423l-885 -1661h-104l889 1661h100z" />
    <glyph glyph-name="radical" unicode="&#x221a;" horiz-adv-x="1124" 
d="M1055 1868l-307 -1946l-498 1028l-197 -96l-33 68l299 147l404 -825l260 1634z" />
    <glyph glyph-name="infinity" unicode="&#x221e;" horiz-adv-x="1460" 
d="M653 668c47.333 112.667 100.331 186.833 158.998 222.5s129.334 53.5 212.001 53.5c107.333 0 198 -38.833 272 -116.5s111 -178.167 111 -301.5c0 -124 -37.167 -225 -111.5 -303s-153.833 -117 -238.5 -117c-63.333 0 -120.166 21 -170.499 63
s-105.5 116.667 -165.5 224c-78 -155.333 -186 -233 -324 -233c-99.333 0 -181.5 34.833 -246.5 104.5s-97.5 157.5 -97.5 263.5c0 104.667 29.667 192 89 262s132 105 218 105c53.333 0 103 -14 149 -42s94 -89.667 144 -185zM749.998 464.999
c42.667 -92 87.498 -159 134.498 -201s105.833 -63 176.5 -63c84 0 153.167 30.333 207.5 91s81.5 138.667 81.5 234c0 93.333 -28 173.333 -84 240s-122.333 100 -199 100c-36.667 0 -69.167 -7.16699 -97.5 -21.5s-53.166 -35 -74.499 -62s-42.666 -65.833 -63.999 -116.5
zM613.996 556.999l10.999 33c-64 143.333 -153 215 -267 215c-73.333 0 -133.166 -25.5 -179.499 -76.5s-69.5 -117.167 -69.5 -198.5c0 -82 22.167 -151.167 66.5 -207.5s98.5 -84.5 162.5 -84.5c54.667 0 104.5 21.667 149.5 65s87.167 128 126.5 254z" />
    <glyph glyph-name="integral" unicode="&#x222b;" horiz-adv-x="561" 
d="M602 1760c0 -26 -9.83203 -47.335 -29.499 -64.002s-44.834 -25 -75.501 -25c-24.667 0 -44.667 8.33301 -60 25s-30 25 -44 25c-12 0 -21.167 -4.83301 -27.5 -14.5s-9.5 -24.167 -9.5 -43.5c0 -22.667 6.5 -108 19.5 -256s19.5 -331.667 19.5 -551
c0 -336.667 -10 -573.167 -30 -709.5s-46.333 -230.5 -79 -282.5c-17.333 -27.333 -39.833 -48 -67.5 -62s-56.167 -21 -85.5 -21c-32.667 0 -61.334 11.667 -86.001 35s-37 51.666 -37 84.999c0 25.333 8.5 47 25.5 65s38.5 27 64.5 27c22.667 0 44.5 -11 65.5 -33
s35.833 -33 44.5 -33c16.667 0 29.834 14.833 39.501 44.5s14.5 80.834 14.5 153.501c0 24.667 -2 90.334 -6 197.001s-6 294 -6 562c0 320.667 5.66699 533.5 17 638.5s25 176.833 41 215.5c19.333 46.667 42.333 81.334 69 104.001s54.667 34 84 34
c38 0 70.667 -10.833 98 -32.5s41 -49.5 41 -83.5z" />
    </font>
</defs>
</svg>
